Biohazard – Urban Discipline




Artist: Biohazard
Year: 1992
Genre: Hardcore
Notes: Discogs
Add. Notes:
Cover incl.: Yes
Encoder: FLAC
Bitrate: ~900 kBit/s (44.1 kHz/16 Bit/s)
Log & Cue incl.: Yes
Size: 609,47 MB
Password: “slam” (without ” “)


All Downloads/Hosters are compatible

Download 1
Turbobit.net
KatFile.com
Rapidgator.net
Usersdrive.com
Download 2
Turbobit.net
KatFile.com
Rapidgator.net
Usersdrive.com

Tracklist:

1 - Chamber Spins Three - 3:43
2 - Punishment - 4:46
3 - Shades Of Grey - 3:29
4 - Business - 4:06
5 - Black And White And Red All Over - 4:10
6 - Man With A Promise - 3:22
7 - Disease - 4:02
8 - Urban Discipline - 5:37
9 - Loss - 5:22
10 - Wrong Side Of The Tracks - 3:38
11 - Mistaken Identity - 4:36
12 - We're Only Gonna Die (From Our Own Arrogance) - 
2:18
13.1 - Tears Of Blood - 4:54
13.2 - Hold My Own - 2:52

EAC-Log, CUE-Sheed & NFO:

Click to open spoiler
Exact Audio Copy V1.0 beta 3 from 29. August 2011

EAC extraction logfile from 1. March 2014, 11:25

Biohazard / Urban Discipline

Used drive : PLEXTOR DVDR PX-810SA Adapter: 2 ID: 1

Read mode : Secure
Utilize accurate stream : Yes
Defeat audio cache : Yes
Make use of C2 pointers : No

Read offset correction : 48
Overread into Lead-In and Lead-Out : No
Fill up missing offset samples with silence : Yes
Delete leading and trailing silent blocks : No
Null samples used in CRC calculations : Yes
Used interface : Native Win32 interface for Win NT & 2000

Used output format : User Defined Encoder
Selected bitrate : 128 kBit/s
Quality : High
Add ID3 tag : No
Command line compressor : C:\Program Files (x86)\Exact Audio Copy\Flac\flac.exe
Additional command line options : -V -8 -T “Date=%year%” -T “Genre=%genre%” %source%

TOC of the extracted CD

Track | Start | Length | Start sector | End sector
———————————————————
1 | 0:00.00 | 3:41.35 | 0 | 16609
2 | 3:41.35 | 4:45.70 | 16610 | 38054
3 | 8:27.30 | 3:27.30 | 38055 | 53609
4 | 11:54.60 | 4:05.23 | 53610 | 72007
5 | 16:00.08 | 4:09.22 | 72008 | 90704
6 | 20:09.30 | 3:20.58 | 90705 | 105762
7 | 23:30.13 | 4:00.45 | 105763 | 123807
8 | 27:30.58 | 5:38.30 | 123808 | 149187
9 | 33:09.13 | 5:21.15 | 149188 | 173277
10 | 38:30.28 | 3:36.57 | 173278 | 189534
11 | 42:07.10 | 4:34.30 | 189535 | 210114
12 | 46:41.40 | 2:19.08 | 210115 | 220547
13 | 49:00.48 | 8:51.22 | 220548 | 260394

Range status and errors

Selected range

Filename C:\1992 – Urban Discipline (RRD 9112)\Biohazard – Urban Discipline.wav

Peak level 100.0 %
Extraction speed 7.3 X
Range quality 100.0 %
Test CRC E7A2472D
Copy CRC E7A2472D
Copy OK

No errors occurred

AccurateRip summary

Track 1 accurately ripped (confidence 3) [CE81BF39] (AR v2)
Track 2 accurately ripped (confidence 3) [160445FC] (AR v2)
Track 3 accurately ripped (confidence 3) [2797013F] (AR v2)
Track 4 accurately ripped (confidence 3) [BF254154] (AR v2)
Track 5 accurately ripped (confidence 3) [8E40115F] (AR v2)
Track 6 accurately ripped (confidence 3) [A1CFB914] (AR v2)
Track 7 accurately ripped (confidence 3) [4334E36E] (AR v2)
Track 8 accurately ripped (confidence 3) [FEBB25FB] (AR v2)
Track 9 accurately ripped (confidence 3) [0C553D38] (AR v2)
Track 10 accurately ripped (confidence 3) [EC75F834] (AR v2)
Track 11 accurately ripped (confidence 3) [CF358BD1] (AR v2)
Track 12 accurately ripped (confidence 3) [A0014015] (AR v2)
Track 13 accurately ripped (confidence 3) [944EDC27] (AR v2)

All tracks accurately ripped

End of status report

==== Log checksum 7ED489DE1DD633AEA86E5C9BF490D898BE1D19DDCB31B7636378A8797CAF3BD0 ====

REM GENRE Metal
REM DATE 1992
REM DISCID 9D0D8F0D
REM COMMENT “ExactAudioCopy v1.0b3”
PERFORMER “Biohazard”
TITLE “Urban Discipline”
FILE “Biohazard – Urban Discipline.flac” WAVE
TRACK 01 AUDIO
TITLE “Chamber Spins Three”
PERFORMER “Biohazard”
INDEX 01 00:00:00
TRACK 02 AUDIO
TITLE “Punishment”
PERFORMER “Biohazard”
INDEX 01 03:41:35
TRACK 03 AUDIO
TITLE “Shades of Gray”
PERFORMER “Biohazard”
INDEX 01 08:27:30
TRACK 04 AUDIO
TITLE “Business”
PERFORMER “Biohazard”
INDEX 01 11:54:60
TRACK 05 AUDIO
TITLE “Black And White And Red All Over”
PERFORMER “Biohazard”
INDEX 01 16:00:08
TRACK 06 AUDIO
TITLE “Man With A Promise”
PERFORMER “Biohazard”
INDEX 00 20:09:28
INDEX 01 20:09:30
TRACK 07 AUDIO
TITLE “Disease”
PERFORMER “Biohazard”
INDEX 00 23:29:73
INDEX 01 23:30:13
TRACK 08 AUDIO
TITLE “Urban Discipline”
PERFORMER “Biohazard”
INDEX 01 27:30:58
TRACK 09 AUDIO
TITLE “Loss”
PERFORMER “Biohazard”
INDEX 00 33:08:08
INDEX 01 33:09:13
TRACK 10 AUDIO
TITLE “Wrong Side Of The Tracks”
PERFORMER “Biohazard”
INDEX 01 38:30:28
TRACK 11 AUDIO
TITLE “Mistaken Identity”
PERFORMER “Biohazard”
INDEX 01 42:07:10
TRACK 12 AUDIO
TITLE “We’re Only Gonna Die (From Our Own Arrogance)”
PERFORMER “Biohazard”
INDEX 01 46:41:40
TRACK 13 AUDIO
TITLE “Tears Of Blood”
PERFORMER “Biohazard”
INDEX 01 49:00:48


Leave a Reply

Your email address will not be published. Required fields are marked *

This site uses Akismet to reduce spam. Learn how your comment data is processed.