Biohazard – Uncivilization (Limited Edition)




Artist: Biohazard
Year: 2001
Genre: Hardcore
Notes: Discogs
Add. Notes: Limited Edition
Cover incl.: Yes
Encoder: FLAC
Bitrate: ~1000 kBit/s (44.1 kHz/16 Bit/s)
Log & Cue incl.: Yes
Size: 855,9 MB
Password: “slam” (without ” “)


All Downloads/Hosters are compatible

Download 1
Turbobit.net
Rapidgator.net
UploadEver.com
KatFile.com
UsersDrive.com
Download 2
Turbobit.net
Rapidgator.net
UploadEver.com
KatFile.com
UsersDrive.com
Download 3
Turbobit.net
Rapidgator.net
UploadEver.com
KatFile.com
UsersDrive.com

Tracklist:

1 - Sellout - 3:31
2 - Uncivilization - 4:09
3 - Wide Awake - 3:46
4 - Get Away - 3:46
5 - Unified - 2:54
6 - Gone - 4:16
7 - Letter Go - 1:21
8 - Last Man Standing - 3:17
9 - HFFK - 2:45
10 - Domination - 4:24
11 - Trap - 3:26
12 - Plastic - 3:43
13 - Cross The Line - 4:10
Bonus Tracks
14 - A.T.F. - 4:01
15 - Life Of My Own - 2:52
16 - Sex And Violence - 3:23

EAC-Log, CUE-Sheed & NFO:

Click to open spoiler
Exact Audio Copy V1.0 beta 3 from 29. August 2011

EAC extraction logfile from 16. April 2014, 21:54

Biohazard / Uncivilization

Used drive : PLEXTOR DVDR PX-810SA Adapter: 2 ID: 1

Read mode : Secure
Utilize accurate stream : Yes
Defeat audio cache : Yes
Make use of C2 pointers : No

Read offset correction : 48
Overread into Lead-In and Lead-Out : No
Fill up missing offset samples with silence : Yes
Delete leading and trailing silent blocks : No
Null samples used in CRC calculations : Yes
Used interface : Native Win32 interface for Win NT & 2000

Used output format : User Defined Encoder
Selected bitrate : 128 kBit/s
Quality : High
Add ID3 tag : No
Command line compressor : C:\Program Files (x86)\Exact Audio Copy\Flac\flac.exe
Additional command line options : -V -8 -T “Date=%year%” -T “Genre=%genre%” %source%

TOC of the extracted CD

Track | Start | Length | Start sector | End sector
———————————————————
1 | 0:00.00 | 3:31.12 | 0 | 15836
2 | 3:31.12 | 4:08.33 | 15837 | 34469
3 | 7:39.45 | 3:46.15 | 34470 | 51434
4 | 11:25.60 | 3:46.60 | 51435 | 68444
5 | 15:12.45 | 2:54.60 | 68445 | 81554
6 | 18:07.30 | 4:15.70 | 81555 | 100749
7 | 22:23.25 | 1:21.57 | 100750 | 106881
8 | 23:45.07 | 3:17.63 | 106882 | 121719
9 | 27:02.70 | 2:45.30 | 121720 | 134124
10 | 29:48.25 | 4:24.37 | 134125 | 153961
11 | 34:12.62 | 3:56.25 | 153962 | 171686
12 | 38:09.12 | 5:28.43 | 171687 | 196329
13 | 43:37.55 | 4:08.49 | 196330 | 214978
14 | 47:46.29 | 4:01.13 | 214979 | 233066
15 | 51:47.42 | 2:52.36 | 233067 | 246002
16 | 54:40.03 | 3:22.54 | 246003 | 261206

Range status and errors

Selected range

Filename C:\2001 – Uncivilization\Biohazard – Uncivilization.wav

Peak level 98.8 %
Extraction speed 1.8 X
Range quality 100.0 %
Test CRC 5F27939E
Copy CRC 5F27939E
Copy OK

No errors occurred

AccurateRip summary

Track 1 accurately ripped (confidence 12) [FFC688C5] (AR v2)
Track 2 accurately ripped (confidence 12) [7D1882AF] (AR v2)
Track 3 accurately ripped (confidence 12) [69B83FFD] (AR v2)
Track 4 accurately ripped (confidence 12) [E2D2B53B] (AR v2)
Track 5 accurately ripped (confidence 12) [11102A63] (AR v2)
Track 6 accurately ripped (confidence 12) [80609AF2] (AR v2)
Track 7 accurately ripped (confidence 12) [631F13DF] (AR v2)
Track 8 accurately ripped (confidence 12) [0F3631AF] (AR v2)
Track 9 accurately ripped (confidence 12) [B1FE408B] (AR v2)
Track 10 accurately ripped (confidence 11) [709A3257] (AR v2)
Track 11 accurately ripped (confidence 12) [101879E4] (AR v2)
Track 12 accurately ripped (confidence 12) [E5D45BC5] (AR v2)
Track 13 accurately ripped (confidence 11) [9AEA57FE] (AR v2)
Track 14 accurately ripped (confidence 11) [554009DD] (AR v2)
Track 15 accurately ripped (confidence 11) [5EEBA754] (AR v2)
Track 16 accurately ripped (confidence 11) [EA052ED3] (AR v2)

All tracks accurately ripped

End of status report

==== Log checksum 55507084CDE65F1994E183C6BC675077F2EC8640321DC652CF6A1EE81E7D6BEC ====

REM GENRE Metal
REM DATE 2001
REM DISCID E00D9A10
REM COMMENT “ExactAudioCopy v1.0b3”
PERFORMER “Biohazard”
TITLE “Uncivilization”
FILE “Biohazard – Uncivilization.flac” WAVE
TRACK 01 AUDIO
TITLE “Sellout”
PERFORMER “Biohazard”
INDEX 01 00:00:00
TRACK 02 AUDIO
TITLE “Uncivilization”
PERFORMER “Biohazard”
INDEX 01 03:31:12
TRACK 03 AUDIO
TITLE “Wide Awake”
PERFORMER “Biohazard”
INDEX 01 07:39:45
TRACK 04 AUDIO
TITLE “Get Away”
PERFORMER “Biohazard”
INDEX 01 11:25:60
TRACK 05 AUDIO
TITLE “Unified”
PERFORMER “Biohazard”
INDEX 01 15:12:45
TRACK 06 AUDIO
TITLE “Gone”
PERFORMER “Biohazard”
INDEX 01 18:07:30
TRACK 07 AUDIO
TITLE “Letter Go”
PERFORMER “Biohazard”
INDEX 01 22:23:25
TRACK 08 AUDIO
TITLE “Last Man Standing”
PERFORMER “Biohazard”
INDEX 01 23:45:07
TRACK 09 AUDIO
TITLE “HFFK”
PERFORMER “Biohazard”
INDEX 01 27:02:70
TRACK 10 AUDIO
TITLE “Domination”
PERFORMER “Biohazard”
INDEX 01 29:48:25
TRACK 11 AUDIO
TITLE “Trap”
PERFORMER “Biohazard”
INDEX 01 34:12:62
TRACK 12 AUDIO
TITLE “Plastic”
PERFORMER “Biohazard”
INDEX 00 37:39:02
INDEX 01 38:09:12
TRACK 13 AUDIO
TITLE “Cross The Line”
PERFORMER “Biohazard”
INDEX 00 41:52:55
INDEX 01 43:37:55
TRACK 14 AUDIO
TITLE “A.T.F. (Bonus Track)”
PERFORMER “Biohazard”
INDEX 01 47:46:29
TRACK 15 AUDIO
TITLE “Life Of My Own (Bonus Track)”
PERFORMER “Biohazard”
INDEX 01 51:47:42
TRACK 16 AUDIO
TITLE “Sex And Violence (Bonus Track)”
PERFORMER “Biohazard”
INDEX 01 54:40:03


Leave a Reply

Your email address will not be published. Required fields are marked *

This site uses Akismet to reduce spam. Learn how your comment data is processed.