Biohazard – Uncivilization (Japanese Edition)




[Total: 0    Average: 0/5]

Artist: Biohazard
Year: 2001
Genre: Hardcore
Notes: Discogs
Add. Notes: Japanese Edition
Cover incl.: Yes
Encoder: FLAC
Bitrate: ~1000 kBit/s (44.1 kHz/16 Bit/s)
Log & Cue incl.: Yes
Size: 499,53 MB
Password: “slam” (without ” “)


All Downloads/Hosters are compatible

Download 1
NitroFlare.com
KatFile.com
Share-online.biz
Rapidgator.net
UploadRar.com
Download 2
NitroFlare.com
KatFile.com
Share-online.biz
Rapidgator.net
UploadRar.com

Tracklist:

1 - Sellout 
2 - Uncivilization 
3 - Wide Awake 
4 - Get Away 
5 - Unified 
6 - Gone 
7 - Letter Go 
8 - Last Man Standing 
9 - HFFK 
10 - Domination 
11 - Trap 
12 - Plastic 
13 - Cross The Line

EAC-Log, CUE-Sheed & NFO:

Click to open spoiler
Exact Audio Copy V1.0 beta 3 from 29. August 2011

EAC extraction logfile from 17. March 2013, 12:40

Biohazard / Uncivilization [Japan, CRCL-4790]

Used drive : TSSTcorpCDDVDW TS-L633J Adapter: 0 ID: 1

Read mode : Secure
Utilize accurate stream : Yes
Defeat audio cache : Yes
Make use of C2 pointers : No

Read offset correction : 6
Overread into Lead-In and Lead-Out : No
Fill up missing offset samples with silence : Yes
Delete leading and trailing silent blocks : No
Null samples used in CRC calculations : Yes
Used interface : Native Win32 interface for Win NT & 2000

Used output format : Internal WAV Routines
Sample format : 44.100 Hz; 16 Bit; Stereo

TOC of the extracted CD

Track | Start | Length | Start sector | End sector
———————————————————
1 | 0:00.00 | 3:30.65 | 0 | 15814
2 | 3:30.65 | 4:08.45 | 15815 | 34459
3 | 7:39.35 | 3:46.02 | 34460 | 51411
4 | 11:25.37 | 3:46.65 | 51412 | 68426
5 | 15:12.27 | 2:54.58 | 68427 | 81534
6 | 18:07.10 | 4:16.00 | 81535 | 100734
7 | 22:23.10 | 1:21.50 | 100735 | 106859
8 | 23:44.60 | 3:17.62 | 106860 | 121696
9 | 27:02.47 | 2:45.40 | 121697 | 134111
10 | 29:48.12 | 4:24.35 | 134112 | 153946
11 | 34:12.47 | 3:56.18 | 153947 | 171664
12 | 38:08.65 | 5:28.42 | 171665 | 196306
13 | 43:37.32 | 4:10.35 | 196307 | 215091

Range status and errors

Selected range

Filename D:\spv-av\BIOHAZARD\[2001] [CD] Uncivilization [Japan, CRCL-4790]\Biohazard – Uncivilization [Japan, CRCL-4790].wav

Peak level 100.0 %
Extraction speed 2.7 X
Range quality 100.0 %
Test CRC B469B985
Copy CRC B469B985
Copy OK

No errors occurred

AccurateRip summary

Track 1 not present in database
Track 2 not present in database
Track 3 not present in database
Track 4 not present in database
Track 5 not present in database
Track 6 not present in database
Track 7 not present in database
Track 8 not present in database
Track 9 not present in database
Track 10 not present in database
Track 11 not present in database
Track 12 not present in database
Track 13 not present in database

None of the tracks are present in the AccurateRip database

End of status report

REM GENRE “NY Hardcore”
REM DATE 2001
REM DISCID A90B330D
REM COMMENT “ExactAudioCopy v1.0b3”
PERFORMER “Biohazard”
TITLE “Uncivilization [Japan, CRCL-4790]”
FILE “Biohazard – Uncivilization [Japan, CRCL-4790].flac” WAVE
TRACK 01 AUDIO
TITLE “Sellout”
PERFORMER “Biohazard”
INDEX 01 00:00:00
TRACK 02 AUDIO
TITLE “Uncivilization”
PERFORMER “Biohazard”
INDEX 01 03:30:65
TRACK 03 AUDIO
TITLE “Wide Awake”
PERFORMER “Biohazard”
INDEX 01 07:39:35
TRACK 04 AUDIO
TITLE “Get Away”
PERFORMER “Biohazard”
INDEX 01 11:25:37
TRACK 05 AUDIO
TITLE “Unified”
PERFORMER “Biohazard”
INDEX 01 15:12:27
TRACK 06 AUDIO
TITLE “Gone”
PERFORMER “Biohazard”
INDEX 01 18:07:10
TRACK 07 AUDIO
TITLE “Letter Go”
PERFORMER “Biohazard”
INDEX 01 22:23:10
TRACK 08 AUDIO
TITLE “Last Man Standing”
PERFORMER “Biohazard”
INDEX 01 23:44:60
TRACK 09 AUDIO
TITLE “HFFK”
PERFORMER “Biohazard”
INDEX 01 27:02:47
TRACK 10 AUDIO
TITLE “Domination”
PERFORMER “Biohazard”
INDEX 01 29:48:12
TRACK 11 AUDIO
TITLE “Trap”
PERFORMER “Biohazard”
INDEX 01 34:12:47
TRACK 12 AUDIO
TITLE “Plastic”
PERFORMER “Biohazard”
INDEX 00 37:38:70
INDEX 01 38:08:65
TRACK 13 AUDIO
TITLE “Cross The Line”
PERFORMER “Biohazard”
INDEX 00 43:33:55
INDEX 01 43:37:32


Spread the Download

Leave a Reply

Your email address will not be published. Required fields are marked *

Enter the text from the image below
 

This site uses Akismet to reduce spam. Learn how your comment data is processed.