Biohazard – The Underground Years (Remastered)




[Total: 0    Average: 0/5]

Artist: Biohazard
Year: 1990/1996
Genre: Metal
Notes: Discogs
Add. Notes: Remastered
Cover incl.: Yes
Encoder: FLAC
Bitrate: ~1000 kBit/s (44.1 kHz/16 Bit/s)
Log & Cue incl.: Yes
Size: 648,68 MB
Password: “slam” (without ” “)


All Downloads/Hosters are compatible

Download 1
Share-online.biz
Rapidgator.net
UploadEver.com
KatFile.com
UsersDrive.com
Download 2
Share-online.biz
Rapidgator.net
UploadEver.com
KatFile.com
UsersDrive.com
Download 3
Share-online.biz
Rapidgator.net
UploadEver.com
KatFile.com
UsersDrive.com

Tracklist:

1 - Retribution - 4:25
2 - Victory - 2:28
3 - Blue Blood - 2:29
4 - Howard Beach - 2:09
5 - Wrong Side Of The Tracks - 3:54
6 - Justified Violence - 4:09
7 - Skinny Song - 2:27
8 - Hold My Own - 2:38
9 - Pain - 2:34
10 - Panic Attack - 3:30
11 - Survival Of The Fittest - 2:16
12 - There And Back - 4:01
13 - Scarred For Life - 4:15

EAC-Log, CUE-Sheed & NFO:

Click to open spoiler
Exact Audio Copy V1.0 beta 3 from 29. August 2011

EAC extraction logfile from 18. March 2014, 21:56

Biohazard / Biohazard

Used drive : PLEXTOR DVDR PX-810SA Adapter: 2 ID: 1

Read mode : Secure
Utilize accurate stream : Yes
Defeat audio cache : Yes
Make use of C2 pointers : No

Read offset correction : 48
Overread into Lead-In and Lead-Out : No
Fill up missing offset samples with silence : Yes
Delete leading and trailing silent blocks : No
Null samples used in CRC calculations : Yes
Used interface : Native Win32 interface for Win NT & 2000

Used output format : User Defined Encoder
Selected bitrate : 128 kBit/s
Quality : High
Add ID3 tag : No
Command line compressor : C:\Program Files (x86)\Exact Audio Copy\Flac\flac.exe
Additional command line options : -V -8 -T “Date=%year%” -T “Genre=%genre%” %source%

TOC of the extracted CD

Track | Start | Length | Start sector | End sector
———————————————————
1 | 0:00.00 | 4:25.62 | 0 | 19936
2 | 4:25.62 | 2:29.03 | 19937 | 31114
3 | 6:54.65 | 2:29.45 | 31115 | 42334
4 | 9:24.35 | 2:09.32 | 42335 | 52041
5 | 11:33.67 | 3:54.45 | 52042 | 69636
6 | 15:28.37 | 4:09.00 | 69637 | 88311
7 | 19:37.37 | 2:27.65 | 88312 | 99401
8 | 22:05.27 | 2:38.55 | 99402 | 111306
9 | 24:44.07 | 2:34.73 | 111307 | 122929
10 | 27:19.05 | 3:30.47 | 122930 | 138726
11 | 30:49.52 | 2:16.15 | 138727 | 148941
12 | 33:05.67 | 4:01.70 | 148942 | 167086
13 | 37:07.62 | 4:15.30 | 167087 | 186241

Range status and errors

Selected range

Filename C:\1990 – Biohazard (Magnetic Air 7-4701-44004-2)\Biohazard – Biohazard.wav

Peak level 100.0 %
Extraction speed 6.7 X
Range quality 100.0 %
Test CRC 5F0216A3
Copy CRC 5F0216A3
Copy OK

No errors occurred

AccurateRip summary

Track 1 cannot be verified as accurate (confidence 13) [C192317F], AccurateRip returned [A65B23D7] (AR v2)
Track 2 cannot be verified as accurate (confidence 13) [B9FCEB4C], AccurateRip returned [900BEC9D] (AR v2)
Track 3 cannot be verified as accurate (confidence 13) [39B7015A], AccurateRip returned [B8E5D52D] (AR v2)
Track 4 cannot be verified as accurate (confidence 13) [9AF834B8], AccurateRip returned [F0B95908] (AR v2)
Track 5 cannot be verified as accurate (confidence 13) [8C76F7FB], AccurateRip returned [5B3CEF14] (AR v2)
Track 6 cannot be verified as accurate (confidence 13) [19FBB14B], AccurateRip returned [F8731879] (AR v2)
Track 7 cannot be verified as accurate (confidence 13) [D11E7765], AccurateRip returned [43FFFE56] (AR v2)
Track 8 cannot be verified as accurate (confidence 13) [C0B560B6], AccurateRip returned [BD285DCF] (AR v2)
Track 9 cannot be verified as accurate (confidence 13) [3B62481A], AccurateRip returned [FC719EB5] (AR v2)
Track 10 cannot be verified as accurate (confidence 13) [3FA97C9A], AccurateRip returned [FE299757] (AR v2)
Track 11 cannot be verified as accurate (confidence 13) [7702392E], AccurateRip returned [15968FE1] (AR v2)
Track 12 cannot be verified as accurate (confidence 13) [B9EAF751], AccurateRip returned [BD797F78] (AR v2)
Track 13 cannot be verified as accurate (confidence 11) [8C1DE11F], AccurateRip returned [1B6E642B] (AR v2)

No tracks could be verified as accurate
You may have a different pressing from the one(s) in the database

End of status report

==== Log checksum D08E3605C7F630CAFC51007771B3A3BF063110D923C6B55AAEC58392AE1FA370 ====

REM GENRE Metal
REM DATE 1990
REM DISCID C209B30D
REM COMMENT “ExactAudioCopy v1.0b3”
PERFORMER “Biohazard”
TITLE “Biohazard”
FILE “Biohazard – Biohazard.flac” WAVE
TRACK 01 AUDIO
TITLE “Retribution”
PERFORMER “Biohazard”
INDEX 01 00:00:00
TRACK 02 AUDIO
TITLE “Victory”
PERFORMER “Biohazard”
INDEX 00 04:23:67
INDEX 01 04:25:62
TRACK 03 AUDIO
TITLE “Blue Blood”
PERFORMER “Biohazard”
INDEX 01 06:54:65
TRACK 04 AUDIO
TITLE “Howard Beach”
PERFORMER “Biohazard”
INDEX 00 09:22:57
INDEX 01 09:24:35
TRACK 05 AUDIO
TITLE “Wrong Side Of The Tracks”
PERFORMER “Biohazard”
INDEX 01 11:33:67
TRACK 06 AUDIO
TITLE “Justified Violence”
PERFORMER “Biohazard”
INDEX 01 15:28:37
TRACK 07 AUDIO
TITLE “Skinny Song”
PERFORMER “Biohazard”
INDEX 00 19:36:07
INDEX 01 19:37:37
TRACK 08 AUDIO
TITLE “Hold My Own”
PERFORMER “Biohazard”
INDEX 00 22:04:15
INDEX 01 22:05:27
TRACK 09 AUDIO
TITLE “Pain”
PERFORMER “Biohazard”
INDEX 00 24:42:47
INDEX 01 24:44:07
TRACK 10 AUDIO
TITLE “Panic Attack”
PERFORMER “Biohazard”
INDEX 00 27:17:17
INDEX 01 27:19:05
TRACK 11 AUDIO
TITLE “Survival Of The Fittest”
PERFORMER “Biohazard”
INDEX 00 30:48:20
INDEX 01 30:49:52
TRACK 12 AUDIO
TITLE “There & Back”
PERFORMER “Biohazard”
INDEX 00 33:04:27
INDEX 01 33:05:67
TRACK 13 AUDIO
TITLE “Scarred For Life”
PERFORMER “Biohazard”
INDEX 00 37:05:32
INDEX 01 37:07:62

Spread the Download

Leave a Reply

Your email address will not be published. Required fields are marked *

Enter the text from the image below
 

This site uses Akismet to reduce spam. Learn how your comment data is processed.