Biohazard – Tales From The B-Side




Artist: Biohazard
Year: 2000
Genre: Hardcore
Notes: Discogs
Add. Notes:
Cover incl.: Yes
Encoder: FLAC
Bitrate: ~800 kBit/s (44.1 kHz/16 Bit/s)
Log & Cue incl.: Yes
Size: 426,92 MB
Password: “slam” (without ” “)


All Downloads/Hosters are compatible

Download 1
Turbobit.net
Rapidgator.net
KatFile.com
UploadRar.com
Download 2
Turbobit.net
Rapidgator.net
KatFile.com
UploadRar.com

Tracklist:

1 - Three Point Back - 2:42
2 - Falling - 2:56
3 - Sumptin' To Prove (Demo Version) - 1:29
4 - Slam (Remix) - 3:39
5 - Beaten - 3:11
6 - How It Is (Remix) - 4:12
7 - Sadman - 3:47
8 - Enslaved - 2:08
9 - Judgement Night - 4:35
10 - Inhale - 1:54
11 - Piece Of Mind - 2:44
12 - Shades Of Grey (Demo Version) - 3:24
13 - Punishment (Demo Version) - 4:30

EAC-Log, CUE-Sheed & NFO:

Click to open spoiler
Exact Audio Copy V1.0 beta 3 from 29. August 2011

EAC extraction logfile from 16. April 2014, 20:34

Biohazard / Tales From The B-Side

Used drive : PLEXTOR DVDR PX-810SA Adapter: 2 ID: 1

Read mode : Secure
Utilize accurate stream : Yes
Defeat audio cache : Yes
Make use of C2 pointers : No

Read offset correction : 48
Overread into Lead-In and Lead-Out : No
Fill up missing offset samples with silence : Yes
Delete leading and trailing silent blocks : No
Null samples used in CRC calculations : Yes
Used interface : Native Win32 interface for Win NT & 2000

Used output format : User Defined Encoder
Selected bitrate : 128 kBit/s
Quality : High
Add ID3 tag : No
Command line compressor : C:\Program Files (x86)\Exact Audio Copy\Flac\flac.exe
Additional command line options : -V -8 -T “Date=%year%” -T “Genre=%genre%” %source%

TOC of the extracted CD

Track | Start | Length | Start sector | End sector
———————————————————
1 | 0:00.00 | 2:42.12 | 0 | 12161
2 | 2:42.12 | 2:56.45 | 12162 | 25406
3 | 5:38.57 | 1:29.07 | 25407 | 32088
4 | 7:07.64 | 3:39.63 | 32089 | 48576
5 | 10:47.52 | 3:11.50 | 48577 | 62951
6 | 13:59.27 | 4:12.32 | 62952 | 81883
7 | 18:11.59 | 3:47.06 | 81884 | 98914
8 | 21:58.65 | 2:08.52 | 98915 | 108566
9 | 24:07.42 | 4:35.45 | 108567 | 129236
10 | 28:43.12 | 1:54.06 | 129237 | 137792
11 | 30:37.18 | 2:44.57 | 137793 | 150149
12 | 33:22.00 | 3:24.04 | 150150 | 165453
13 | 36:46.04 | 4:30.15 | 165454 | 185718

Range status and errors

Selected range

Filename C:\2000 – Tales From The B-Side\Biohazard – Tales From The B-Side.wav

Peak level 100.0 %
Extraction speed 6.7 X
Range quality 100.0 %
Test CRC 9672EB04
Copy CRC 9672EB04
Copy OK

No errors occurred

AccurateRip summary

Track 1 accurately ripped (confidence 5) [DC83392C] (AR v2)
Track 2 accurately ripped (confidence 5) [0F65CA87] (AR v2)
Track 3 accurately ripped (confidence 5) [8EA8D8E8] (AR v2)
Track 4 accurately ripped (confidence 5) [48A24343] (AR v2)
Track 5 accurately ripped (confidence 5) [D7095FF1] (AR v2)
Track 6 accurately ripped (confidence 5) [A3CDE93A] (AR v2)
Track 7 accurately ripped (confidence 5) [5C080FCA] (AR v2)
Track 8 accurately ripped (confidence 5) [8A902B0F] (AR v2)
Track 9 accurately ripped (confidence 5) [65EDAA4D] (AR v2)
Track 10 accurately ripped (confidence 5) [4D9EBB75] (AR v2)
Track 11 accurately ripped (confidence 5) [A2DF9B48] (AR v2)
Track 12 accurately ripped (confidence 5) [D47640B1] (AR v2)
Track 13 accurately ripped (confidence 5) [200BD823] (AR v2)

All tracks accurately ripped

End of status report

==== Log checksum 29ECD14913B90060D71500659AC7E7DF026057285DB18A0F966B45E5830D0621 ====

REM GENRE Metal
REM DATE 2000
REM DISCID 9E09AC0D
REM COMMENT “ExactAudioCopy v1.0b3”
PERFORMER “Biohazard”
TITLE “Tales From The B-Side”
FILE “Biohazard – Tales From The B-Side.flac” WAVE
TRACK 01 AUDIO
TITLE “Three Point Back”
PERFORMER “Biohazard”
FLAGS DCP
INDEX 01 00:00:00
TRACK 02 AUDIO
TITLE “Falling”
PERFORMER “Biohazard”
FLAGS DCP
INDEX 00 02:40:42
INDEX 01 02:42:12
TRACK 03 AUDIO
TITLE “Sumptin’ To Prove (demo version)”
PERFORMER “Biohazard”
FLAGS DCP
INDEX 00 05:37:12
INDEX 01 05:38:57
TRACK 04 AUDIO
TITLE “Slam (remix)”
PERFORMER “Biohazard”
FLAGS DCP
INDEX 00 07:06:19
INDEX 01 07:07:64
TRACK 05 AUDIO
TITLE “Beaten”
PERFORMER “Biohazard”
FLAGS DCP
INDEX 00 10:46:07
INDEX 01 10:47:52
TRACK 06 AUDIO
TITLE “How It Is (remix)”
PERFORMER “Biohazard”
FLAGS DCP
INDEX 00 13:57:57
INDEX 01 13:59:27
TRACK 07 AUDIO
TITLE “Sadman”
PERFORMER “Biohazard”
FLAGS DCP
INDEX 00 18:10:14
INDEX 01 18:11:59
TRACK 08 AUDIO
TITLE “Enslaved”
PERFORMER “Biohazard”
FLAGS DCP
INDEX 00 21:57:20
INDEX 01 21:58:65
TRACK 09 AUDIO
TITLE “Judgement Night”
PERFORMER “Biohazard”
FLAGS DCP
INDEX 00 24:05:72
INDEX 01 24:07:42
TRACK 10 AUDIO
TITLE “Inhale”
PERFORMER “Biohazard”
FLAGS DCP
INDEX 00 28:41:42
INDEX 01 28:43:12
TRACK 11 AUDIO
TITLE “Piece Of Mind”
PERFORMER “Biohazard”
FLAGS DCP
INDEX 00 30:35:48
INDEX 01 30:37:18
TRACK 12 AUDIO
TITLE “Shades Of Grey (demo version)”
PERFORMER “Biohazard”
FLAGS DCP
INDEX 00 33:20:30
INDEX 01 33:22:00
TRACK 13 AUDIO
TITLE “Punishment (demo version)”
PERFORMER “Biohazard”
FLAGS DCP
INDEX 00 36:44:34
INDEX 01 36:46:04


Leave a Reply

Your email address will not be published. Required fields are marked *

This site uses Akismet to reduce spam. Learn how your comment data is processed.