Biohazard – State Of The World Address (Limited Japanese Edition)




Artist: Biohazard
Year: 1994
Genre: Metal
Notes: Discogs
Add. Notes: Limited Japanese Edition
Cover incl.: Yes
Encoder: FLAC
Bitrate: ~1000 kBit/s (44.1 kHz/16 Bit/s)
Log & Cue incl.: Yes
Size: 460,64 MB
Password: “slam” (without ” “)


All Downloads/Hosters are compatible

Download 1
Turbobit.net
Rapidgator.net
UploadEver.com
KatFile.com
UsersDrive.com
Download 2
Turbobit.net
Rapidgator.net
UploadEver.com
KatFile.com
UsersDrive.com
Download 3
Turbobit.net
Rapidgator.net
UploadEver.com
KatFile.com
UsersDrive.com

Tracklist:

1. State Of The World Address 
2. Down For Life 
3. What Makes Us Tick 
4. Tales From The Hard Side 
5. How It Is 
6. Remember 
7. Five Blocks To The Subway 
8. Each Day 
9. Failed Territory 
10. Lack There Of 
11. Pride 
12. Human Animal 
13. Cornered 
14. Love Denied

EAC-Log, CUE-Sheed & NFO:

Click to open spoiler
Exact Audio Copy V1.0 beta 1 from 15. November 2010

EAC extraction logfile from 31. May 2011, 3:58

Biohazard / State Of The World Address (WEA, Japan, WPCR-28)

Used drive : PLEXTOR DVDR PX-880SA Adapter: 1 ID: 1

Read mode : Secure
Utilize accurate stream : Yes
Defeat audio cache : Yes
Make use of C2 pointers : No

Read offset correction : 6
Overread into Lead-In and Lead-Out : No
Fill up missing offset samples with silence : Yes
Delete leading and trailing silent blocks : No
Null samples used in CRC calculations : Yes
Used interface : Native Win32 interface for Win NT & 2000

Used output format : User Defined Encoder
Selected bitrate : 1024 kBit/s
Quality : High
Add ID3 tag : No
Command line compressor : C:\FLAC\flac.exe
Additional command line options : -8 -V %s -o %d

TOC of the extracted CD

Track | Start | Length | Start sector | End sector
———————————————————
1 | 0:00.00 | 3:18.17 | 0 | 14866
2 | 3:18.17 | 3:46.15 | 14867 | 31831
3 | 7:04.32 | 2:23.03 | 31832 | 42559
4 | 9:27.35 | 5:39.72 | 42560 | 68056
5 | 15:07.32 | 4:01.50 | 68057 | 86181
6 | 19:09.07 | 3:40.05 | 86182 | 102686
7 | 22:49.12 | 3:13.08 | 102687 | 117169
8 | 26:02.20 | 3:52.05 | 117170 | 134574
9 | 29:54.25 | 5:40.12 | 134575 | 160086
10 | 35:34.37 | 4:46.45 | 160087 | 181581
11 | 40:21.07 | 3:16.28 | 181582 | 196309
12 | 43:37.35 | 4:53.37 | 196310 | 218321
13 | 48:30.72 | 3:10.73 | 218322 | 232644
14 | 51:41.70 | 5:55.02 | 232645 | 259271

Range status and errors

Selected range

Filename C:\Mysterons [Skull_of_Sheeps]\Biohazard [1994] State Of The World Address (Japan, WEA, WPCR-28)\Biohazard – State Of The World Address (WEA, Japan, WPCR-28).wav

Peak level 100.0 %
Extraction speed 0.1 X
Range quality 99.9 %
Test CRC A8AEB619
Copy CRC A8AEB619
Copy OK

No errors occurred

AccurateRip summary

Track 1 accurately ripped (confidence 6) [480EAD18]
Track 2 accurately ripped (confidence 6) [FA5A71D6]
Track 3 accurately ripped (confidence 6) [6D7C4799]
Track 4 accurately ripped (confidence 6) [4D3BD9D1]
Track 5 accurately ripped (confidence 6) [0EB794EE]
Track 6 accurately ripped (confidence 6) [B959079E]
Track 7 accurately ripped (confidence 6) [EA93D99B]
Track 8 accurately ripped (confidence 5) [EEF9C7D0]
Track 9 accurately ripped (confidence 6) [7CB9CED0]
Track 10 accurately ripped (confidence 6) [175F449A]
Track 11 accurately ripped (confidence 6) [E5812EAD]
Track 12 accurately ripped (confidence 5) [4928D0E5]
Track 13 accurately ripped (confidence 6) [24954E1B]
Track 14 accurately ripped (confidence 6) [C818BFF8]

All tracks accurately ripped

End of status report

REM GENRE Metal
REM DATE 1994
REM DISCID AF0D800E
REM COMMENT “ExactAudioCopy v1.0b1”
PERFORMER “Biohazard”
TITLE “State Of The World Address (WEA, Japan, WPCR-28)”
FILE “Biohazard – State Of The World Address (WEA, Japan, WPCR-28).wav” WAVE
TRACK 01 AUDIO
TITLE “State Of The World Address”
PERFORMER “Biohazard”
INDEX 01 00:00:00
TRACK 02 AUDIO
TITLE “Down For Life”
PERFORMER “Biohazard”
INDEX 01 03:18:17
TRACK 03 AUDIO
TITLE “What Makes Us Tick”
PERFORMER “Biohazard”
INDEX 01 07:04:32
TRACK 04 AUDIO
TITLE “Tales From The Hard Side”
PERFORMER “Biohazard”
INDEX 01 09:27:35
TRACK 05 AUDIO
TITLE “How It Is”
PERFORMER “Biohazard”
INDEX 01 15:07:32
TRACK 06 AUDIO
TITLE “Remember”
PERFORMER “Biohazard”
INDEX 01 19:09:07
TRACK 07 AUDIO
TITLE “Five Blocks To The Subway”
PERFORMER “Biohazard”
INDEX 01 22:49:12
TRACK 08 AUDIO
TITLE “Each Day”
PERFORMER “Biohazard”
INDEX 01 26:02:20
TRACK 09 AUDIO
TITLE “Failed Territory”
PERFORMER “Biohazard”
INDEX 00 29:53:72
INDEX 01 29:54:25
TRACK 10 AUDIO
TITLE “Lack There Of”
PERFORMER “Biohazard”
INDEX 01 35:34:37
TRACK 11 AUDIO
TITLE “Pride”
PERFORMER “Biohazard”
INDEX 01 40:21:07
TRACK 12 AUDIO
TITLE “Human Animal”
PERFORMER “Biohazard”
INDEX 01 43:37:35
TRACK 13 AUDIO
TITLE “Cornered”
PERFORMER “Biohazard”
INDEX 01 48:30:72
TRACK 14 AUDIO
TITLE “Love Denied”
PERFORMER “Biohazard”
INDEX 01 51:41:70

Leave a Reply

Your email address will not be published. Required fields are marked *

Enter the text from the image below
 

This site uses Akismet to reduce spam. Learn how your comment data is processed.