Biohazard – State Of The World Address (Limited Edition)




Artist: Biohazard
Year: 1994
Genre: Hardcore
Notes: Discogs
Add. Notes: Limited Edition
Cover incl.: Yes
Encoder: FLAC
Bitrate: ~1000 kBit/s (44.1 kHz/16 Bit/s)
Log & Cue incl.: Yes
Size: 842,7 MB
Password: “slam” (without ” “)


All Downloads/Hosters are compatible

Download 1
Turbobit.net
Rapidgator.net
UploadEver.com
KatFile.com
UsersDrive.com
Download 2
Turbobit.net
Rapidgator.net
UploadEver.com
KatFile.com
UsersDrive.com
Download 3
Turbobit.net
Rapidgator.net
UploadEver.com
KatFile.com
UsersDrive.com

Tracklist:

1 - State Of The World Address - 3:18
2 - Down For Life - 3:45
3 - What Makes Us Tick - 2:21
4 - Tales From The Hard Side - 5:43
5 - How It Is - 4:01
6 - Remember - 3:40
7 - Five Blocks To The Subway - 3:12
8 - Each Day - 3:53
9 - Failed Territory - 5:39
10 - Lack There Of - 4:48
11 - Pride - 3:16
12 - Human Animal - 4:54
13 - Cornered - 3:11
14 - Love Denied - 6:17

EAC-Log, CUE-Sheed & NFO:

Click to open spoiler
Exact Audio Copy V1.0 beta 3 from 29. August 2011

EAC extraction logfile from 1. March 2014, 12:15

Biohazard / State Of The World Address

Used drive : PLEXTOR DVDR PX-810SA Adapter: 2 ID: 1

Read mode : Secure
Utilize accurate stream : Yes
Defeat audio cache : Yes
Make use of C2 pointers : No

Read offset correction : 48
Overread into Lead-In and Lead-Out : No
Fill up missing offset samples with silence : Yes
Delete leading and trailing silent blocks : No
Null samples used in CRC calculations : Yes
Used interface : Native Win32 interface for Win NT & 2000

Used output format : User Defined Encoder
Selected bitrate : 128 kBit/s
Quality : High
Add ID3 tag : No
Command line compressor : C:\Program Files (x86)\Exact Audio Copy\Flac\flac.exe
Additional command line options : -V -8 -T “Date=%year%” -T “Genre=%genre%” %source%

TOC of the extracted CD

Track | Start | Length | Start sector | End sector
———————————————————
1 | 0:00.32 | 3:18.58 | 32 | 14939
2 | 3:19.15 | 3:45.72 | 14940 | 31886
3 | 7:05.12 | 2:23.18 | 31887 | 42629
4 | 9:28.30 | 5:40.00 | 42630 | 68129
5 | 15:08.30 | 4:01.50 | 68130 | 86254
6 | 19:10.05 | 3:40.00 | 86255 | 102754
7 | 22:50.05 | 3:13.07 | 102755 | 117236
8 | 26:03.12 | 3:52.03 | 117237 | 134639
9 | 29:55.15 | 5:40.20 | 134640 | 160159
10 | 35:35.35 | 4:46.42 | 160160 | 181651
11 | 40:22.02 | 3:16.23 | 181652 | 196374
12 | 43:38.25 | 4:53.40 | 196375 | 218389
13 | 48:31.65 | 3:11.02 | 218390 | 232716
14 | 51:42.67 | 5:55.03 | 232717 | 259344

Range status and errors

Selected range

Filename C:\1994 – State Of The World Address (Warner Bros. 9 45595-2)\Biohazard – State Of The World Address.wav

Peak level 100.0 %
Extraction speed 8.1 X
Range quality 100.0 %
Test CRC 916D00C6
Copy CRC 916D00C6
Copy OK

No errors occurred

AccurateRip summary

Track 1 accurately ripped (confidence 20) [4BB91DD8] (AR v2)
Track 2 accurately ripped (confidence 20) [270E6B43] (AR v2)
Track 3 accurately ripped (confidence 20) [6F1BA29B] (AR v2)
Track 4 accurately ripped (confidence 19) [2918DAB1] (AR v2)
Track 5 accurately ripped (confidence 20) [F65559C1] (AR v2)
Track 6 accurately ripped (confidence 20) [2821184D] (AR v2)
Track 7 accurately ripped (confidence 20) [4BDB3287] (AR v2)
Track 8 accurately ripped (confidence 20) [9FCADF18] (AR v2)
Track 9 accurately ripped (confidence 20) [D3961983] (AR v2)
Track 10 accurately ripped (confidence 20) [6E0F5F1C] (AR v2)
Track 11 accurately ripped (confidence 19) [D1B6DC1E] (AR v2)
Track 12 accurately ripped (confidence 19) [28C7EAA3] (AR v2)
Track 13 accurately ripped (confidence 18) [D1300BD6] (AR v2)
Track 14 accurately ripped (confidence 19) [B14A2C94] (AR v2)

All tracks accurately ripped

End of status report

==== Log checksum ADE2E3561F015F314BC87615BE449CF6A5055C363067A5BDC5B86E3A5908C944 ====

REM GENRE Metal
REM DATE 1994
REM DISCID A10D810E
REM COMMENT “ExactAudioCopy v1.0b3”
PERFORMER “Biohazard”
TITLE “State Of The World Address”
FILE “Biohazard – State Of The World Address.flac” WAVE
TRACK 01 AUDIO
TITLE “State Of The World Address”
PERFORMER “Biohazard”
INDEX 00 00:00:00
INDEX 01 00:00:32
TRACK 02 AUDIO
TITLE “Down For Life”
PERFORMER “Biohazard”
INDEX 00 03:19:12
INDEX 01 03:19:15
TRACK 03 AUDIO
TITLE “What Makes Us Tick”
PERFORMER “Biohazard”
INDEX 00 07:05:10
INDEX 01 07:05:12
TRACK 04 AUDIO
TITLE “Tales from the Hard Side”
PERFORMER “Biohazard”
INDEX 00 09:28:27
INDEX 01 09:28:30
TRACK 05 AUDIO
TITLE “How It Is”
PERFORMER “Biohazard”
INDEX 00 15:08:27
INDEX 01 15:08:30
TRACK 06 AUDIO
TITLE “Remember”
PERFORMER “Biohazard”
INDEX 00 19:10:02
INDEX 01 19:10:05
TRACK 07 AUDIO
TITLE “Five Blocks To The Subway”
PERFORMER “Biohazard”
INDEX 00 22:49:65
INDEX 01 22:50:05
TRACK 08 AUDIO
TITLE “Each Day”
PERFORMER “Biohazard”
INDEX 00 26:03:10
INDEX 01 26:03:12
TRACK 09 AUDIO
TITLE “Failed Territory”
PERFORMER “Biohazard”
INDEX 00 29:55:12
INDEX 01 29:55:15
TRACK 10 AUDIO
TITLE “Lack There Of”
PERFORMER “Biohazard”
INDEX 00 35:35:32
INDEX 01 35:35:35
TRACK 11 AUDIO
TITLE “Pride”
PERFORMER “Biohazard”
INDEX 00 40:22:00
INDEX 01 40:22:02
TRACK 12 AUDIO
TITLE “Human Animal”
PERFORMER “Biohazard”
INDEX 00 43:38:22
INDEX 01 43:38:25
TRACK 13 AUDIO
TITLE “Cornered”
PERFORMER “Biohazard”
INDEX 00 48:31:62
INDEX 01 48:31:65
TRACK 14 AUDIO
TITLE “Love Denied”
PERFORMER “Biohazard”
INDEX 00 51:42:65
INDEX 01 51:42:67


Leave a Reply

Your email address will not be published. Required fields are marked *

This site uses Akismet to reduce spam. Learn how your comment data is processed.