BIOHAZARD – Reborn In Defiance (Japanese Edition)




Artist: BIOHAZARD
Year: 2012
Genre: Hardcore
Notes: Discogs
Add. Notes: Japanese Edition
Cover incl.: Yes
Encoder: FLAC
Bitrate: ~1000 kBit/s (44.1 kHz/16 Bit/s)
Log & Cue incl.: Yes
Size: 530,41 MB
Password: “slam” (without ” “)


All Downloads/Hosters are compatible

Download 1
Turbobit.net
Rapidgator.net
KatFile.com
UploadRar.com
Download 2
Turbobit.net
Rapidgator.net
KatFile.com
UploadRar.com

Tracklist:

1 - 9:IIIX6.941 - 0:54
2 - Vengeance Is Mine - 3:24
3 - Decay - 4:25
4 - Reborn - 4:53
5 - Killing Me - 4:49
6 - Countdown Doom - 4:56
7 - Come Alive - 3:48
8 - Vows Of Redemption - 4:57
9 - Waste Away - 4:24
10 - You Were Wrong - 6:05
11 - Skullcrusher - 4:14
12 - Never Give In - 3:58
13 - Season The Sky - 4:15

EAC-Log, CUE-Sheed & NFO:

Click to open spoiler
Exact Audio Copy V1.0 beta 3 from 29. August 2011

EAC extraction logfile from 17. March 2013, 10:43

Biohazard / Reborn In Defiance [Japan, COCB-60040]

Used drive : TSSTcorpCDDVDW TS-L633J Adapter: 0 ID: 1

Read mode : Secure
Utilize accurate stream : Yes
Defeat audio cache : Yes
Make use of C2 pointers : No

Read offset correction : 6
Overread into Lead-In and Lead-Out : No
Fill up missing offset samples with silence : Yes
Delete leading and trailing silent blocks : No
Null samples used in CRC calculations : Yes
Used interface : Native Win32 interface for Win NT & 2000

Used output format : Internal WAV Routines
Sample format : 44.100 Hz; 16 Bit; Stereo

TOC of the extracted CD

Track | Start | Length | Start sector | End sector
———————————————————
1 | 0:00.00 | 0:54.11 | 0 | 4060
2 | 0:54.11 | 3:24.18 | 4061 | 19378
3 | 4:18.29 | 4:24.63 | 19379 | 39241
4 | 8:43.17 | 4:52.66 | 39242 | 61207
5 | 13:36.08 | 4:49.09 | 61208 | 82891
6 | 18:25.17 | 4:56.19 | 82892 | 105110
7 | 23:21.36 | 3:48.30 | 105111 | 122240
8 | 27:09.66 | 4:56.72 | 122241 | 144512
9 | 32:06.63 | 4:24.17 | 144513 | 164329
10 | 36:31.05 | 6:04.73 | 164330 | 191702
11 | 42:36.03 | 4:14.13 | 191703 | 210765
12 | 46:50.16 | 3:57.49 | 210766 | 228589
13 | 50:47.65 | 4:14.46 | 228590 | 247685

Range status and errors

Selected range

Filename D:\spv-av\BIOHAZARD\[2012] [CD] Reborn In Defiance [Japan, COCB-60040]\Biohazard – Reborn In Defiance [Japan, COCB-60040].wav

Peak level 100.0 %
Extraction speed 2.8 X
Range quality 100.0 %
Test CRC 82933982
Copy CRC 82933982
Copy OK

No errors occurred

AccurateRip summary

Track 1 accurately ripped (confidence 2) [5C5138C8] (AR v1)
Track 2 accurately ripped (confidence 2) [749D00B2] (AR v1)
Track 3 accurately ripped (confidence 2) [9BEFC8E9] (AR v1)
Track 4 accurately ripped (confidence 2) [AFE8377D] (AR v1)
Track 5 accurately ripped (confidence 2) [C2B8BC04] (AR v1)
Track 6 accurately ripped (confidence 2) [D251625D] (AR v1)
Track 7 accurately ripped (confidence 2) [A4B544A1] (AR v1)
Track 8 accurately ripped (confidence 2) [9249C924] (AR v1)
Track 9 accurately ripped (confidence 2) [F39EA0C8] (AR v1)
Track 10 accurately ripped (confidence 2) [E802BC3D] (AR v1)
Track 11 accurately ripped (confidence 2) [12513182] (AR v1)
Track 12 accurately ripped (confidence 2) [E32ED1A2] (AR v1)
Track 13 accurately ripped (confidence 2) [A3F3676F] (AR v1)

All tracks accurately ripped

End of status report

REM GENRE “NY HardCore”
REM DATE 2012
REM DISCID A20CE60D
REM COMMENT “ExactAudioCopy v1.0b3”
PERFORMER “Biohazard ”
TITLE “Reborn In Defiance [Japan, COCB-60040]”
FILE “Biohazard – Reborn In Defiance [Japan, COCB-60040].wav” WAVE
TRACK 01 AUDIO
TITLE “9:IIIX6.941”
PERFORMER “Biohazard ”
INDEX 01 00:00:00
TRACK 02 AUDIO
TITLE “Vengeance Is Mine”
PERFORMER “Biohazard ”
INDEX 01 00:54:11
TRACK 03 AUDIO
TITLE “Decay”
PERFORMER “Biohazard ”
INDEX 01 04:18:29
TRACK 04 AUDIO
TITLE “Reborn”
PERFORMER “Biohazard ”
INDEX 01 08:43:17
TRACK 05 AUDIO
TITLE “Killing Me”
PERFORMER “Biohazard ”
INDEX 01 13:36:08
TRACK 06 AUDIO
TITLE “Countdown Doom”
PERFORMER “Biohazard ”
INDEX 01 18:25:17
TRACK 07 AUDIO
TITLE “Come Alive”
PERFORMER “Biohazard ”
INDEX 01 23:21:36
TRACK 08 AUDIO
TITLE “Vows Of Redemption”
PERFORMER “Biohazard ”
INDEX 01 27:09:66
TRACK 09 AUDIO
TITLE “Waste Away”
PERFORMER “Biohazard ”
INDEX 01 32:06:63
TRACK 10 AUDIO
TITLE “You Were Wrong”
PERFORMER “Biohazard ”
INDEX 01 36:31:05
TRACK 11 AUDIO
TITLE “Skullcrusher”
PERFORMER “Biohazard ”
INDEX 01 42:36:03
TRACK 12 AUDIO
TITLE “Never Give In”
PERFORMER “Biohazard ”
INDEX 01 46:50:16
TRACK 13 AUDIO
TITLE “Season The Sky”
PERFORMER “Biohazard ”
INDEX 01 50:47:65


Leave a Reply

Your email address will not be published. Required fields are marked *

Enter the text from the image below
 

This site uses Akismet to reduce spam. Learn how your comment data is processed.