Biohazard – No Holds Barred – Live In Europe




Artist: Biohazard
Year: 1997
Genre: Hardcore
Notes: Discogs
Add. Notes:
Cover incl.: Yes
Encoder: FLAC
Bitrate: ~1100 kBit/s (44.1 kHz/16 Bit/s)
Log & Cue incl.: Yes
Size: 740,3 MB
Password: “slam” (without ” “)


All Downloads/Hosters are compatible

Download 1
Turbobit.net
Rapidgator.net
KatFile.com
UploadRar.com
Download 2
Turbobit.net
Rapidgator.net
KatFile.com
UploadRar.com
Download 3
Turbobit.net
Rapidgator.net
KatFile.com
UploadRar.com

Tracklist:

1 - Shades Of Grey - 3:54
2 - What Makes Us Tick - 2:00
3 - Authority - 2:16
4 - Urban Discipline - 5:03
5 - Modern Democracy - 2:35
6 - Love Denied - 1:52
7 - Business - 2:34
8 - Tales From The Hardside - 3:58
9 - Better Days - 2:17
10 - Victory - 2:18
11 - Survival Of The Fittest - 0:47
12 - Blue Blood - 0:29
13 - Black And White And Red All Over - 0:42
14 - Victory (Reprise) - 0:29
15 - How It Is - 3:26
16 - After Forever - 1:53
17 - Tears Of Blood - 4:41
18 - German Lesson #7 - 0:41
19 - Chamber Spins Three - 3:41
20 - Wrong Side Of The Tracks - 3:35
21 - Waiting To Die - 3:14
22 - These Eyes (Have Seen) - 2:45
23 - Punishement - 4:57
24 - Hold My Own - 3:19

EAC-Log, CUE-Sheed & NFO:

Click to open spoiler
Exact Audio Copy V1.0 beta 3 from 29. August 2011

EAC extraction logfile from 1. March 2014, 22:14

Biohazard / No Holds Barred (Live In Europe)

Used drive : PLEXTOR DVDR PX-810SA Adapter: 2 ID: 1

Read mode : Secure
Utilize accurate stream : Yes
Defeat audio cache : Yes
Make use of C2 pointers : No

Read offset correction : 48
Overread into Lead-In and Lead-Out : No
Fill up missing offset samples with silence : Yes
Delete leading and trailing silent blocks : No
Null samples used in CRC calculations : Yes
Used interface : Native Win32 interface for Win NT & 2000

Used output format : User Defined Encoder
Selected bitrate : 128 kBit/s
Quality : High
Add ID3 tag : No
Command line compressor : C:\Program Files (x86)\Exact Audio Copy\Flac\flac.exe
Additional command line options : -V -8 -T “Date=%year%” -T “Genre=%genre%” %source%

TOC of the extracted CD

Track | Start | Length | Start sector | End sector
———————————————————
1 | 0:00.00 | 3:54.22 | 0 | 17571
2 | 3:54.22 | 2:00.30 | 17572 | 26601
3 | 5:54.52 | 2:16.25 | 26602 | 36826
4 | 8:11.02 | 5:03.00 | 36827 | 59551
5 | 13:14.02 | 2:35.08 | 59552 | 71184
6 | 15:49.10 | 1:52.20 | 71185 | 79604
7 | 17:41.30 | 2:34.15 | 79605 | 91169
8 | 20:15.45 | 3:58.07 | 91170 | 109026
9 | 24:13.52 | 2:17.23 | 109027 | 119324
10 | 26:31.00 | 2:17.65 | 119325 | 129664
11 | 28:48.65 | 0:47.05 | 129665 | 133194
12 | 29:35.70 | 0:28.52 | 133195 | 135346
13 | 30:04.47 | 0:41.43 | 135347 | 138464
14 | 30:46.15 | 0:29.20 | 138465 | 140659
15 | 31:15.35 | 3:25.55 | 140660 | 156089
16 | 34:41.15 | 1:52.42 | 156090 | 164531
17 | 36:33.57 | 4:41.35 | 164532 | 185641
18 | 41:15.17 | 0:41.03 | 185642 | 188719
19 | 41:56.20 | 3:40.70 | 188720 | 205289
20 | 45:37.15 | 3:35.30 | 205290 | 221444
21 | 49:12.45 | 3:13.40 | 221445 | 235959
22 | 52:26.10 | 2:45.00 | 235960 | 248334
23 | 55:11.10 | 4:57.15 | 248335 | 270624
24 | 60:08.25 | 3:18.72 | 270625 | 285546

Range status and errors

Selected range

Filename C:\1997 – No Holds Barred [Live In Europe] (RR 8803-2)\Biohazard – No Holds Barred (Live In Europe).wav

Peak level 100.0 %
Extraction speed 7.6 X
Range quality 100.0 %
Test CRC 821ACAD0
Copy CRC 821ACAD0
Copy OK

No errors occurred

AccurateRip summary

Track 1 accurately ripped (confidence 8) [255F9383] (AR v2)
Track 2 accurately ripped (confidence 8) [7A2F852C] (AR v2)
Track 3 accurately ripped (confidence 8) [0D74AC22] (AR v2)
Track 4 accurately ripped (confidence 8) [851C9C6C] (AR v2)
Track 5 accurately ripped (confidence 8) [7BB29E79] (AR v2)
Track 6 accurately ripped (confidence 8) [5452974A] (AR v2)
Track 7 accurately ripped (confidence 8) [9C0C192C] (AR v2)
Track 8 accurately ripped (confidence 8) [C5FBD619] (AR v2)
Track 9 accurately ripped (confidence 8) [7FCC3F03] (AR v2)
Track 10 accurately ripped (confidence 8) [0868869C] (AR v2)
Track 11 accurately ripped (confidence 8) [F988FEA8] (AR v2)
Track 12 accurately ripped (confidence 8) [DEBFD281] (AR v2)
Track 13 accurately ripped (confidence 8) [187F91C4] (AR v2)
Track 14 accurately ripped (confidence 8) [14967F7B] (AR v2)
Track 15 accurately ripped (confidence 8) [096EE8AA] (AR v2)
Track 16 accurately ripped (confidence 8) [C5DB4591] (AR v2)
Track 17 accurately ripped (confidence 8) [30996685] (AR v2)
Track 18 accurately ripped (confidence 8) [DDC745DC] (AR v2)
Track 19 accurately ripped (confidence 8) [56F1785E] (AR v2)
Track 20 accurately ripped (confidence 8) [9DD38F97] (AR v2)
Track 21 accurately ripped (confidence 8) [64188FB7] (AR v2)
Track 22 accurately ripped (confidence 8) [B04934B8] (AR v2)
Track 23 accurately ripped (confidence 8) [1ED96B64] (AR v2)
Track 24 accurately ripped (confidence 8) [0C73CD3E] (AR v2)

All tracks accurately ripped

End of status report

==== Log checksum 10D8D4682E113944C9BA884C7ED27D85FBAF777346CB8DBF5F0397AF7ECD9BA0 ====

REM GENRE Metal
REM DATE 1997
REM DISCID 720EDF18
REM COMMENT “ExactAudioCopy v1.0b3”
PERFORMER “Biohazard”
TITLE “No Holds Barred (Live In Europe)”
FILE “Biohazard – No Holds Barred (Live In Europe).flac” WAVE
TRACK 01 AUDIO
TITLE “Shades Of Grey”
PERFORMER “Biohazard”
INDEX 01 00:00:00
TRACK 02 AUDIO
TITLE “What Makes Us Tick”
PERFORMER “Biohazard”
INDEX 01 03:54:22
TRACK 03 AUDIO
TITLE “Authority”
PERFORMER “Biohazard”
INDEX 00 05:54:51
INDEX 01 05:54:52
TRACK 04 AUDIO
TITLE “Urban Discipline”
PERFORMER “Biohazard”
INDEX 01 08:11:02
TRACK 05 AUDIO
TITLE “Modern Democracy”
PERFORMER “Biohazard”
INDEX 01 13:14:02
TRACK 06 AUDIO
TITLE “Love Denied”
PERFORMER “Biohazard”
INDEX 01 15:49:10
TRACK 07 AUDIO
TITLE “Business”
PERFORMER “Biohazard”
INDEX 01 17:41:30
TRACK 08 AUDIO
TITLE “Tales From The Hardside”
PERFORMER “Biohazard”
INDEX 01 20:15:45
TRACK 09 AUDIO
TITLE “Better Days”
PERFORMER “Biohazard”
INDEX 01 24:13:52
TRACK 10 AUDIO
TITLE “Victory”
PERFORMER “Biohazard”
INDEX 01 26:31:00
TRACK 11 AUDIO
TITLE “Survival Of The Fittest”
PERFORMER “Biohazard”
INDEX 01 28:48:65
TRACK 12 AUDIO
TITLE “Blue Blood”
PERFORMER “Biohazard”
INDEX 01 29:35:70
TRACK 13 AUDIO
TITLE “Black And White And Red All Over”
PERFORMER “Biohazard”
INDEX 01 30:04:47
TRACK 14 AUDIO
TITLE “Victory (Reprise)”
PERFORMER “Biohazard”
INDEX 01 30:46:15
TRACK 15 AUDIO
TITLE “How It Is”
PERFORMER “Biohazard”
INDEX 01 31:15:35
TRACK 16 AUDIO
TITLE “After Forever”
PERFORMER “Biohazard”
INDEX 01 34:41:15
TRACK 17 AUDIO
TITLE “Tears Of Blood”
PERFORMER “Biohazard”
INDEX 01 36:33:57
TRACK 18 AUDIO
TITLE “German Lesson #7”
PERFORMER “Biohazard”
INDEX 01 41:15:17
TRACK 19 AUDIO
TITLE “Chamber Spins Three”
PERFORMER “Biohazard”
INDEX 01 41:56:20
TRACK 20 AUDIO
TITLE “Wrong Side Of The Tracks”
PERFORMER “Biohazard”
INDEX 00 45:36:55
INDEX 01 45:37:15
TRACK 21 AUDIO
TITLE “Waiting To Die”
PERFORMER “Biohazard”
INDEX 01 49:12:45
TRACK 22 AUDIO
TITLE “These Eyes (Have Seen)”
PERFORMER “Biohazard”
INDEX 01 52:26:10
TRACK 23 AUDIO
TITLE “Punishment”
PERFORMER “Biohazard”
INDEX 01 55:11:10
TRACK 24 AUDIO
TITLE “Hold My Own”
PERFORMER “Biohazard”
INDEX 01 60:08:25


Leave a Reply

Your email address will not be published. Required fields are marked *

Enter the text from the image below
 

This site uses Akismet to reduce spam. Learn how your comment data is processed.