Biohazard – No Holds Barred – Live In Europe (Japanese Edition)




[Total: 0    Average: 0/5]

Artist: Biohazard
Year: 1997
Genre: Hardcore
Notes: Discogs
Add. Notes: Japanese Edition
Cover incl.: Yes
Encoder: FLAC
Bitrate: ~1100 kBit/s (44.1 kHz/16 Bit/s)
Log & Cue incl.: Yes
Size: 573,69 MB
Password: “slam” (without ” “)


All Downloads/Hosters are compatible

Download 1
Share-online.biz
Rapidgator.net
KatFile.com
UploadRar.com
Download 2
Share-online.biz
Rapidgator.net
KatFile.com
UploadRar.com

Tracklist:

1 - Shades Of Grey - 3:54
2 - What Makes Us Tick - 2:00
3 - Authority - 2:16
4 - Urban Discipline - 5:03
5 - Modern Democracy - 2:35
6 - Love Denied - 1:52
7 - Business - 2:34
8 - Tales From The Hardside - 3:58
9 - Better Days - 2:17
10 - Victory - 2:18
11 - Survival Of The Fittest - 0:47
12 - Blue Blood - 0:29
13 - Black And White And Red All Over - 0:42
14 - Victory (Reprise) - 0:29
15 - How It Is - 3:26
16 - After Forever - 1:53
17 - Tears Of Blood - 4:41
18 - German Lesson #7 - 0:41
19 - Chamber Spins Three - 3:41
20 - Wrong Side Of The Tracks - 3:35
21 - Waiting To Die - 3:14
22 - These Eyes (Have Seen) - 2:45
23 - Punishement - 4:57
24 - Hold My Own - 3:19

EAC-Log, CUE-Sheed & NFO:

Click to open spoiler
Exact Audio Copy V1.0 beta 3 from 29. August 2011

EAC extraction logfile from 30. May 2014, 19:06

Biohazard / No Holds Barred – Live In Europe [Japan, Roadrunner Rec. RRCY-1055]

Used drive : Optiarc DVD RW AD-7203S Adapter: 4 ID: 0

Read mode : Secure
Utilize accurate stream : Yes
Defeat audio cache : Yes
Make use of C2 pointers : No

Read offset correction : 48
Overread into Lead-In and Lead-Out : No
Fill up missing offset samples with silence : Yes
Delete leading and trailing silent blocks : No
Null samples used in CRC calculations : Yes
Used interface : Native Win32 interface for Win NT & 2000

Used output format : Internal WAV Routines
Sample format : 44.100 Hz; 16 Bit; Stereo

TOC of the extracted CD

Track | Start | Length | Start sector | End sector
———————————————————
1 | 0:00.00 | 3:54.35 | 0 | 17584
2 | 3:54.35 | 2:00.30 | 17585 | 26614
3 | 5:54.65 | 2:16.25 | 26615 | 36839
4 | 8:11.15 | 5:03.00 | 36840 | 59564
5 | 13:14.15 | 2:35.08 | 59565 | 71197
6 | 15:49.23 | 1:52.20 | 71198 | 79617
7 | 17:41.43 | 2:34.15 | 79618 | 91182
8 | 20:15.58 | 3:58.07 | 91183 | 109039
9 | 24:13.65 | 2:17.23 | 109040 | 119337
10 | 26:31.13 | 2:17.65 | 119338 | 129677
11 | 28:49.03 | 0:47.05 | 129678 | 133207
12 | 29:36.08 | 0:28.52 | 133208 | 135359
13 | 30:04.60 | 0:41.43 | 135360 | 138477
14 | 30:46.28 | 0:29.20 | 138478 | 140672
15 | 31:15.48 | 3:25.55 | 140673 | 156102
16 | 34:41.28 | 1:52.42 | 156103 | 164544
17 | 36:33.70 | 4:41.35 | 164545 | 185654
18 | 41:15.30 | 0:41.03 | 185655 | 188732
19 | 41:56.33 | 3:40.70 | 188733 | 205302
20 | 45:37.28 | 3:35.30 | 205303 | 221457
21 | 49:12.58 | 3:13.40 | 221458 | 235972
22 | 52:26.23 | 2:45.00 | 235973 | 248347
23 | 55:11.23 | 4:57.15 | 248348 | 270637
24 | 60:08.38 | 3:19.27 | 270638 | 285589

Range status and errors

Selected range

Filename C:\spv-av\BIOHAZARD\[1997] [CD] No Holds Barred – Live In Europe [Japan, Roadrunner Rec. RRCY-1055]\Biohazard – No Holds Barred – Live In Europe [Japan, Roadrunner Rec. RRCY-1055].wav

Peak level 100.0 %
Extraction speed 4.0 X
Range quality 99.9 %
Test CRC 43004EB7
Copy CRC 43004EB7
Copy OK

No errors occurred

AccurateRip summary

Track 1 accurately ripped (confidence 2) [B6CAC474] (AR v2)
Track 2 accurately ripped (confidence 2) [B3C74E63] (AR v2)
Track 3 accurately ripped (confidence 2) [EB6C1FA2] (AR v2)
Track 4 accurately ripped (confidence 2) [1E4DCF71] (AR v2)
Track 5 accurately ripped (confidence 2) [7012F748] (AR v2)
Track 6 accurately ripped (confidence 2) [EA9BDE98] (AR v2)
Track 7 accurately ripped (confidence 2) [84331CC7] (AR v2)
Track 8 accurately ripped (confidence 2) [F262E23A] (AR v2)
Track 9 accurately ripped (confidence 2) [537CB5CD] (AR v2)
Track 10 accurately ripped (confidence 2) [FAAF0E70] (AR v2)
Track 11 accurately ripped (confidence 2) [136C6B52] (AR v2)
Track 12 accurately ripped (confidence 2) [1EEDF937] (AR v2)
Track 13 accurately ripped (confidence 2) [3C2F05FA] (AR v2)
Track 14 accurately ripped (confidence 2) [652947A7] (AR v2)
Track 15 accurately ripped (confidence 2) [A0FAB626] (AR v2)
Track 16 accurately ripped (confidence 2) [AF36A0D0] (AR v2)
Track 17 accurately ripped (confidence 2) [485EB0D7] (AR v2)
Track 18 accurately ripped (confidence 2) [272D82B4] (AR v2)
Track 19 accurately ripped (confidence 2) [A8CFF795] (AR v2)
Track 20 accurately ripped (confidence 2) [8656211A] (AR v2)
Track 21 accurately ripped (confidence 2) [72172860] (AR v2)
Track 22 accurately ripped (confidence 2) [8B9BA669] (AR v2)
Track 23 accurately ripped (confidence 2) [CB80ED85] (AR v2)
Track 24 accurately ripped (confidence 2) [61D20B81] (AR v2)

All tracks accurately ripped

End of status report

==== Log checksum EC33B7F86645071EDFA2F7E73DA1D26205F46BC5B15C20B4B331377ADC50C7D7 ====

REM GENRE “NY Hardcore”
REM DATE 1997
REM DISCID 740EDF18
REM COMMENT “ExactAudioCopy v1.0b3”
PERFORMER “Biohazard”
TITLE “No Holds Barred – Live In Europe [Japan, Roadrunner Rec. RRCY-1055]”
FILE “Biohazard – No Holds Barred – Live In Europe [Japan, Roadrunner Rec. RRCY-1055].wav” WAVE
TRACK 01 AUDIO
TITLE “Shades Of Grey ”
PERFORMER “Biohazard”
INDEX 01 00:00:00
TRACK 02 AUDIO
TITLE “What Makes Us Tick ”
PERFORMER “Biohazard”
INDEX 01 03:54:35
TRACK 03 AUDIO
TITLE “Authority ”
PERFORMER “Biohazard”
INDEX 01 05:54:65
TRACK 04 AUDIO
TITLE “Urban Discipline ”
PERFORMER “Biohazard”
INDEX 01 08:11:15
TRACK 05 AUDIO
TITLE “Modern Democracy ”
PERFORMER “Biohazard”
INDEX 01 13:14:15
TRACK 06 AUDIO
TITLE “Love Denied ”
PERFORMER “Biohazard”
INDEX 01 15:49:23
TRACK 07 AUDIO
TITLE “Business ”
PERFORMER “Biohazard”
INDEX 01 17:41:43
TRACK 08 AUDIO
TITLE “Tales From The Hardside ”
PERFORMER “Biohazard”
INDEX 01 20:15:58
TRACK 09 AUDIO
TITLE “Better Days ”
PERFORMER “Biohazard”
INDEX 01 24:13:65
TRACK 10 AUDIO
TITLE “Victory ”
PERFORMER “Biohazard”
INDEX 01 26:31:13
TRACK 11 AUDIO
TITLE “Survival Of The Fittest ”
PERFORMER “Biohazard”
INDEX 01 28:49:03
TRACK 12 AUDIO
TITLE “Blue Blood ”
PERFORMER “Biohazard”
INDEX 01 29:36:08
TRACK 13 AUDIO
TITLE “Black And White And Red All Over ”
PERFORMER “Biohazard”
INDEX 01 30:04:60
TRACK 14 AUDIO
TITLE “Victory (Reprise) ”
PERFORMER “Biohazard”
INDEX 01 30:46:28
TRACK 15 AUDIO
TITLE “How It Is ”
PERFORMER “Biohazard”
INDEX 01 31:15:48
TRACK 16 AUDIO
TITLE “After Forever ”
PERFORMER “Biohazard”
INDEX 01 34:41:28
TRACK 17 AUDIO
TITLE “Tears Of Blood ”
PERFORMER “Biohazard”
INDEX 01 36:33:70
TRACK 18 AUDIO
TITLE “German Lesson #7 ”
PERFORMER “Biohazard”
INDEX 01 41:15:30
TRACK 19 AUDIO
TITLE “Chamber Spins Three ”
PERFORMER “Biohazard”
INDEX 01 41:56:33
TRACK 20 AUDIO
TITLE “Wrong Side Of The Tracks ”
PERFORMER “Biohazard”
INDEX 01 45:37:28
TRACK 21 AUDIO
TITLE “Waiting To Die ”
PERFORMER “Biohazard”
INDEX 01 49:12:58
TRACK 22 AUDIO
TITLE “These Eyes (Have Seen) ”
PERFORMER “Biohazard”
INDEX 01 52:26:23
TRACK 23 AUDIO
TITLE “Punishement ”
PERFORMER “Biohazard”
INDEX 01 55:11:23
TRACK 24 AUDIO
TITLE “Hold My Own ”
PERFORMER “Biohazard”
INDEX 01 60:08:38


Spread the Download

Leave a Reply

Your email address will not be published. Required fields are marked *

Enter the text from the image below
 

This site uses Akismet to reduce spam. Learn how your comment data is processed.