Biohazard – New World Disorder




Artist: Biohazard
Year: 1999
Genre: Hardcore
Notes: Discogs
Add. Notes:
Cover incl.: Yes
Encoder: FLAC
Bitrate: ~1000 kBit/s (44.1 kHz/16 Bit/s)
Log & Cue incl.: Yes
Size: 643,65 MB
Password: “slam” (without ” “)


All Downloads/Hosters are compatible

Download 1
Turbobit.net
Rapidgator.net
KatFile.com
UploadRar.com
Download 2
Turbobit.net
Rapidgator.net
KatFile.com
UploadRar.com
Download 3
Turbobit.net
Rapidgator.net
KatFile.com
UploadRar.com

Tracklist:

1 - Resist - 2:43
2 - Switchback - 3:33
3 - Salvation - 3:56
4 - End Of My Rope - 3:43
5 - All For None - 3:51
6 - Breakdown - 2:51
7 - Inner Fear On - 3:28
8 - Abandon In Place - 3:45
9 - Skin - 3:27
10 - Camouflage - 2:48
11 - Decline - 3:44
12 - Cycle Of Abuse - 4:52
13 - Dogs Of War - 4:13
14 - New World Disorder - 6:44

EAC-Log, CUE-Sheed & NFO:

Click to open spoiler
Exact Audio Copy V1.0 beta 3 from 29. August 2011

EAC extraction logfile from 27. February 2014, 23:21

Biohazard / New World Disorder

Used drive : PLEXTOR DVDR PX-810SA Adapter: 2 ID: 1

Read mode : Secure
Utilize accurate stream : Yes
Defeat audio cache : Yes
Make use of C2 pointers : No

Read offset correction : 48
Overread into Lead-In and Lead-Out : No
Fill up missing offset samples with silence : Yes
Delete leading and trailing silent blocks : No
Null samples used in CRC calculations : Yes
Used interface : Native Win32 interface for Win NT & 2000

Used output format : User Defined Encoder
Selected bitrate : 128 kBit/s
Quality : High
Add ID3 tag : No
Command line compressor : C:\Program Files (x86)\Exact Audio Copy\Flac\flac.exe
Additional command line options : -V -8 -T “Date=%year%” -T “Genre=%genre%” %source%

TOC of the extracted CD

Track | Start | Length | Start sector | End sector
———————————————————
1 | 0:00.00 | 2:43.62 | 0 | 12286
2 | 2:43.62 | 3:33.40 | 12287 | 28301
3 | 6:17.27 | 3:56.10 | 28302 | 46011
4 | 10:13.37 | 3:43.20 | 46012 | 62756
5 | 13:56.57 | 3:51.69 | 62757 | 80150
6 | 17:48.51 | 2:51.63 | 80151 | 93038
7 | 20:40.39 | 3:28.12 | 93039 | 108650
8 | 24:08.51 | 3:45.20 | 108651 | 125545
9 | 27:53.71 | 3:27.73 | 125546 | 141143
10 | 31:21.69 | 2:48.12 | 141144 | 153755
11 | 34:10.06 | 3:44.65 | 153756 | 170620
12 | 37:54.71 | 4:52.33 | 170621 | 192553
13 | 42:47.29 | 4:13.20 | 192554 | 211548
14 | 47:00.49 | 6:43.59 | 211549 | 241832
15 | 56:16.33 | 19:09.41 | 253233 | 339448

Range status and errors

Selected range

Filename C:\1999 – New World Disorder (Mercury – King 314 546 032-2)\Biohazard – New World Disorder.wav

Peak level 99.8 %
Extraction speed 7.7 X
Range quality 100.0 %
Test CRC 65955C75
Copy CRC 65955C75
Copy OK

No errors occurred

AccurateRip summary

Track 1 accurately ripped (confidence 10) [324ED09F] (AR v2)
Track 2 accurately ripped (confidence 10) [37A98F78] (AR v2)
Track 3 accurately ripped (confidence 10) [44B0C24E] (AR v2)
Track 4 accurately ripped (confidence 10) [5F94AD14] (AR v2)
Track 5 accurately ripped (confidence 10) [FE61A4BB] (AR v2)
Track 6 accurately ripped (confidence 10) [CC9B8776] (AR v2)
Track 7 accurately ripped (confidence 10) [39B1959B] (AR v2)
Track 8 accurately ripped (confidence 10) [12AC3580] (AR v2)
Track 9 accurately ripped (confidence 10) [B557906F] (AR v2)
Track 10 accurately ripped (confidence 10) [8461ACDB] (AR v2)
Track 11 accurately ripped (confidence 10) [453EB51C] (AR v2)
Track 12 accurately ripped (confidence 10) [0FE01DDD] (AR v2)
Track 13 accurately ripped (confidence 10) [B1381DCF] (AR v2)
Track 14 accurately ripped (confidence 10) [38988F55] (AR v2)

All tracks accurately ripped

End of status report

==== Log checksum 93F3051DAF1BE25977F7F3A3CDA7036B12F0E46B584B2307BBE0EC5DBA564EA6 ====

REM GENRE Metal
REM DATE 1999
REM DISCID D511AD0F
REM COMMENT “ExactAudioCopy v1.0b3”
PERFORMER “Biohazard”
TITLE “New World Disorder”
FILE “Biohazard – New World Disorder.flac” WAVE
TRACK 01 AUDIO
TITLE “Resist”
PERFORMER “Biohazard”
INDEX 01 00:00:00
TRACK 02 AUDIO
TITLE “Switchback”
PERFORMER “Biohazard”
INDEX 01 02:43:62
TRACK 03 AUDIO
TITLE “Salvation”
PERFORMER “Biohazard”
INDEX 00 06:16:70
INDEX 01 06:17:27
TRACK 04 AUDIO
TITLE “End of My Rope”
PERFORMER “Biohazard”
INDEX 01 10:13:37
TRACK 05 AUDIO
TITLE “All for None”
PERFORMER “Biohazard”
INDEX 01 13:56:57
TRACK 06 AUDIO
TITLE “Breakdown”
PERFORMER “Biohazard”
INDEX 01 17:48:51
TRACK 07 AUDIO
TITLE “Inner Fear On”
PERFORMER “Biohazard”
INDEX 01 20:40:39
TRACK 08 AUDIO
TITLE “Abandon in Place”
PERFORMER “Biohazard”
INDEX 00 24:08:50
INDEX 01 24:08:51
TRACK 09 AUDIO
TITLE “Skin”
PERFORMER “Biohazard”
INDEX 01 27:53:71
TRACK 10 AUDIO
TITLE “Camouflage”
PERFORMER “Biohazard”
INDEX 00 31:21:68
INDEX 01 31:21:69
TRACK 11 AUDIO
TITLE “Decline”
PERFORMER “Biohazard”
INDEX 01 34:10:06
TRACK 12 AUDIO
TITLE “Cycle of Abuse”
PERFORMER “Biohazard”
INDEX 00 37:54:70
INDEX 01 37:54:71
TRACK 13 AUDIO
TITLE “Dogs of War”
PERFORMER “Biohazard”
INDEX 01 42:47:29
TRACK 14 AUDIO
TITLE “New World Disorder”
PERFORMER “Biohazard”
INDEX 01 47:00:49


Leave a Reply

Your email address will not be published. Required fields are marked *

Enter the text from the image below
 

This site uses Akismet to reduce spam. Learn how your comment data is processed.