Biohazard – New World Disorder (Enhanced Japanese Edition)




Artist: Biohazard
Year: 1999
Genre: Hardcore
Notes: Discogs
Add. Notes: Enhanced Japanese Edition
Cover incl.: Yes
Encoder: FLAC
Bitrate: ~1000 kBit/s (44.1 kHz/16 Bit/s)
Log & Cue incl.: Yes
Size: 715,58 MB
Password: “slam” (without ” “)


All Downloads/Hosters are compatible

Download 1
Turbobit.net
Rapidgator.net
KatFile.com
UploadRar.com
Download 2
Turbobit.net
Rapidgator.net
KatFile.com
UploadRar.com
Download 3
Turbobit.net
Rapidgator.net
KatFile.com
UploadRar.com

Tracklist:

1 - Resist - 2:43
2 - Switchback - 3:33
3 - Salvation - 3:56
4 - End Of My Rope - 3:43
5 - All For None - 3:51
6 - Breakdown - 2:51
7 - Inner Fear On - 3:28
8 - Abandon In Place - 3:45
9 - Skin - 3:27
10 - Camouflage - 2:48
11 - Decline - 3:44
12 - Cycle Of Abuse - 4:52
13 - Dogs Of War - 4:13
14 - New World Disorder - 6:44
15 - Power (Bonus Track) 
16 - Not Worth Shit (Bonus Track) 
17 - Friend Or Foe (Bonus Track)

EAC-Log, CUE-Sheed & NFO:

Click to open spoiler
Exact Audio Copy V1.0 beta 3 from 29. August 2011

EAC extraction logfile from 1. July 2013, 12:04

Biohazard / New World Disorder [Japan, PHCW-1021]

Used drive : TSSTcorpCDDVDW TS-L633J Adapter: 0 ID: 1

Read mode : Secure
Utilize accurate stream : Yes
Defeat audio cache : Yes
Make use of C2 pointers : No

Read offset correction : 6
Overread into Lead-In and Lead-Out : No
Fill up missing offset samples with silence : Yes
Delete leading and trailing silent blocks : No
Null samples used in CRC calculations : Yes
Used interface : Native Win32 interface for Win NT & 2000

Used output format : Internal WAV Routines
Sample format : 44.100 Hz; 16 Bit; Stereo

TOC of the extracted CD

Track | Start | Length | Start sector | End sector
———————————————————
1 | 0:00.00 | 2:43.62 | 0 | 12286
2 | 2:43.62 | 3:33.38 | 12287 | 28299
3 | 6:17.25 | 3:56.10 | 28300 | 46009
4 | 10:13.35 | 3:43.20 | 46010 | 62754
5 | 13:56.55 | 3:51.70 | 62755 | 80149
6 | 17:48.50 | 2:51.65 | 80150 | 93039
7 | 20:40.40 | 3:28.10 | 93040 | 108649
8 | 24:08.50 | 3:45.25 | 108650 | 125549
9 | 27:54.00 | 3:28.02 | 125550 | 141151
10 | 31:22.02 | 2:48.10 | 141152 | 153761
11 | 34:10.12 | 3:44.63 | 153762 | 170624
12 | 37:55.00 | 4:52.37 | 170625 | 192561
13 | 42:47.37 | 4:13.23 | 192562 | 211559
14 | 47:00.60 | 6:45.32 | 211560 | 241966
15 | 53:46.17 | 1:47.00 | 241967 | 249991
16 | 55:33.17 | 1:29.18 | 249992 | 256684
17 | 57:02.35 | 1:15.02 | 256685 | 262311
18 | 60:49.37 | 18:44.13 | 273712 | 358024

Range status and errors

Selected range

Filename D:\spv-av\BIOHAZARD\[1999] [ECD] New World Disorder [Japan, PHCW-1021]\Biohazard – New World Disorder [Japan, PHCW-1021].wav

Peak level 99.8 %
Extraction speed 3.2 X
Range quality 100.0 %
Test CRC CB38A4D7
Copy CRC CB38A4D7
Copy OK

No errors occurred

AccurateRip summary

Track 1 not present in database
Track 2 not present in database
Track 3 not present in database
Track 4 not present in database
Track 5 not present in database
Track 6 not present in database
Track 7 not present in database
Track 8 not present in database
Track 9 not present in database
Track 10 not present in database
Track 11 not present in database
Track 12 not present in database
Track 13 not present in database
Track 14 not present in database
Track 15 not present in database
Track 16 not present in database
Track 17 not present in database

None of the tracks are present in the AccurateRip database

End of status report

REM GENRE “N.Y. Hardcore”
REM DATE 1999
REM DISCID FC12A512
REM COMMENT “ExactAudioCopy v1.0b3”
PERFORMER “Biohazard”
TITLE “New World Disorder [Japan, PHCW-1021]”
FILE “Biohazard – New World Disorder [Japan, PHCW-1021].flac” WAVE
TRACK 01 AUDIO
TITLE “Resist”
PERFORMER “Biohazard”
INDEX 01 00:00:00
TRACK 02 AUDIO
TITLE “Switchback”
PERFORMER “Biohazard”
INDEX 01 02:43:62
TRACK 03 AUDIO
TITLE “Salvation”
PERFORMER “Biohazard”
INDEX 00 06:16:70
INDEX 01 06:17:25
TRACK 04 AUDIO
TITLE “End Of My Rope”
PERFORMER “Biohazard”
INDEX 01 10:13:35
TRACK 05 AUDIO
TITLE “All For None”
PERFORMER “Biohazard”
INDEX 01 13:56:55
TRACK 06 AUDIO
TITLE “Breakdown”
PERFORMER “Biohazard”
INDEX 01 17:48:50
TRACK 07 AUDIO
TITLE “Inner Fear On”
PERFORMER “Biohazard”
INDEX 01 20:40:40
TRACK 08 AUDIO
TITLE “Abandon In Place”
PERFORMER “Biohazard”
INDEX 01 24:08:50
TRACK 09 AUDIO
TITLE “Skin”
PERFORMER “Biohazard”
INDEX 01 27:54:00
TRACK 10 AUDIO
TITLE “Camouflage”
PERFORMER “Biohazard”
INDEX 01 31:22:02
TRACK 11 AUDIO
TITLE “Decline”
PERFORMER “Biohazard”
INDEX 01 34:10:12
TRACK 12 AUDIO
TITLE “Cycle Of Abuse”
PERFORMER “Biohazard”
INDEX 01 37:55:00
TRACK 13 AUDIO
TITLE “Dogs Of War”
PERFORMER “Biohazard”
INDEX 01 42:47:37
TRACK 14 AUDIO
TITLE “New World Disorder”
PERFORMER “Biohazard”
INDEX 01 47:00:60
TRACK 15 AUDIO
TITLE “Power [Bonus Track]”
PERFORMER “Biohazard”
INDEX 00 53:44:70
INDEX 01 53:46:17
TRACK 16 AUDIO
TITLE “Not Worth Shit [Bonus Track]”
PERFORMER “Biohazard”
INDEX 00 55:32:65
INDEX 01 55:33:17
TRACK 17 AUDIO
TITLE “Friend Or Foe [Bonus Track]”
PERFORMER “Biohazard”
INDEX 00 57:01:35
INDEX 01 57:02:35


Leave a Reply

Your email address will not be published. Required fields are marked *

This site uses Akismet to reduce spam. Learn how your comment data is processed.