Biohazard – Means to an End




Artist: Biohazard
Year: 2005
Genre: Hardcore
Notes: Discogs
Add. Notes:
Cover incl.: Yes
Encoder: FLAC
Bitrate: ~900 kBit/s (44.1 kHz/16 Bit/s)
Log & Cue incl.: Yes
Size: 554,37 MB
Password: “slam” (without ” “)


All Downloads/Hosters are compatible

Download 1
Turbobit.net
Rapidgator.net
KatFile.com
UploadRar.com
Download 2
Turbobit.net
Rapidgator.net
KatFile.com
UploadRar.com

Tracklist:

1 - My Life, My Way - 4:14
2 - The Fire Burns Inside - 2:17
3 - Killing To Be Free - 4:24
4 - Filled With Hate - 3:09
5 - Devotion - 3:18
6 - Break It Away From Me - 3:08
7 - Kings Never Die - 2:48
8 - Don't Stand Alone - 3:54
9 - To The Grave - 2:55
10 - Set Me Free - 3:39

EAC-Log, CUE-Sheed & NFO:

Click to open spoiler
Exact Audio Copy V1.0 beta 3 from 29. August 2011

EAC extraction logfile from 18. March 2014, 21:36

Biohazard / Means to an End

Used drive : PLEXTOR DVDR PX-810SA Adapter: 2 ID: 1

Read mode : Secure
Utilize accurate stream : Yes
Defeat audio cache : Yes
Make use of C2 pointers : No

Read offset correction : 48
Overread into Lead-In and Lead-Out : No
Fill up missing offset samples with silence : Yes
Delete leading and trailing silent blocks : No
Null samples used in CRC calculations : Yes
Used interface : Native Win32 interface for Win NT & 2000

Used output format : User Defined Encoder
Selected bitrate : 128 kBit/s
Quality : High
Add ID3 tag : No
Command line compressor : C:\Program Files (x86)\Exact Audio Copy\Flac\flac.exe
Additional command line options : -V -8 -T “Date=%year%” -T “Genre=%genre%” %source%

TOC of the extracted CD

Track | Start | Length | Start sector | End sector
———————————————————
1 | 0:00.00 | 4:13.32 | 0 | 19006
2 | 4:13.32 | 2:17.02 | 19007 | 29283
3 | 6:30.34 | 4:24.22 | 29284 | 49105
4 | 10:54.56 | 3:09.08 | 49106 | 63288
5 | 14:03.64 | 3:17.24 | 63289 | 78087
6 | 17:21.13 | 3:07.61 | 78088 | 92173
7 | 20:28.74 | 2:52.62 | 92174 | 105135
8 | 23:21.61 | 3:53.28 | 105136 | 122638
9 | 27:15.14 | 2:55.08 | 122639 | 135771
10 | 30:10.22 | 3:38.64 | 135772 | 152185

Range status and errors

Selected range

Filename C:\2005 – Means to an End (SPV 69882 CD)\Biohazard – Means to an End.wav

Peak level 100.0 %
Extraction speed 6.6 X
Range quality 100.0 %
Test CRC F6CAE465
Copy CRC F6CAE465
Copy OK

No errors occurred

AccurateRip summary

Track 1 accurately ripped (confidence 10) [B1E9698C] (AR v2)
Track 2 accurately ripped (confidence 10) [DD1A3B49] (AR v2)
Track 3 accurately ripped (confidence 10) [F4379DC7] (AR v2)
Track 4 accurately ripped (confidence 10) [F1C9FB29] (AR v2)
Track 5 accurately ripped (confidence 10) [0CB16D00] (AR v2)
Track 6 accurately ripped (confidence 10) [EE103F16] (AR v2)
Track 7 accurately ripped (confidence 10) [98D7BE37] (AR v2)
Track 8 accurately ripped (confidence 10) [34BD1062] (AR v2)
Track 9 accurately ripped (confidence 10) [DA2CF510] (AR v2)
Track 10 accurately ripped (confidence 10) [0278E651] (AR v2)

All tracks accurately ripped

End of status report

==== Log checksum 8A732B6FDFF325F443D7A3F65120A1031DDAD02348A3A77104457E805AF5E841 ====

REM GENRE Metal
REM DATE 2005
REM DISCID 7107ED0A
REM COMMENT “ExactAudioCopy v1.0b3”
PERFORMER “Biohazard”
TITLE “Means to an End”
FILE “Biohazard – Means to an End.flac” WAVE
TRACK 01 AUDIO
TITLE “My life, my way”
PERFORMER “Biohazard”
FLAGS DCP
INDEX 01 00:00:00
TRACK 02 AUDIO
TITLE “The fire burns inside”
PERFORMER “Biohazard”
FLAGS DCP
INDEX 01 04:13:32
TRACK 03 AUDIO
TITLE “Killing to be free”
PERFORMER “Biohazard”
FLAGS DCP
INDEX 01 06:30:34
TRACK 04 AUDIO
TITLE “Filled with hate”
PERFORMER “Biohazard”
FLAGS DCP
INDEX 01 10:54:56
TRACK 05 AUDIO
TITLE “Devotion”
PERFORMER “Biohazard”
FLAGS DCP
INDEX 01 14:03:64
TRACK 06 AUDIO
TITLE “Break it away from me”
PERFORMER “Biohazard”
FLAGS DCP
INDEX 01 17:21:13
TRACK 07 AUDIO
TITLE “Kings never die”
PERFORMER “Biohazard”
FLAGS DCP
INDEX 01 20:28:74
TRACK 08 AUDIO
TITLE “Don’t stand alone”
PERFORMER “Biohazard”
FLAGS DCP
INDEX 01 23:21:61
TRACK 09 AUDIO
TITLE “To the grave”
PERFORMER “Biohazard”
FLAGS DCP
INDEX 01 27:15:14
TRACK 10 AUDIO
TITLE “Set me free”
PERFORMER “Biohazard”
FLAGS DCP
INDEX 01 30:10:22


Leave a Reply

Your email address will not be published. Required fields are marked *

This site uses Akismet to reduce spam. Learn how your comment data is processed.