Biohazard – Mata Leão




Artist: Biohazard
Year: 1996
Genre: Hardcore
Notes: Discogs
Add. Notes:
Cover incl.: Yes
Encoder: FLAC
Bitrate: ~1000 kBit/s (44.1 kHz/16 Bit/s)
Log & Cue incl.: Yes
Size: 629,72 MB
Password: “slam” (without ” “)


All Downloads/Hosters are compatible

Download 1
Turbobit.net
Rapidgator.net
UploadEver.com
KatFile.com
UsersDrive.com
Download 2
Turbobit.net
Rapidgator.net
UploadEver.com
KatFile.com
UsersDrive.com
Download 3
Turbobit.net
Rapidgator.net
UploadEver.com
KatFile.com
UsersDrive.com

Tracklist:

1 - Authority - 2:14
2 - These Eyes (Have Seen) - 2:39
3 - Stigmatized - 1:51
4 - Control - 2:50
5 - Cleansing - 3:25
6 - Competition - 1:49
7 - Modern Democracy - 2:26
8 - Better Days - 1:49
9 - Gravity - 2:39
10 - A Lot To Learn - 1:29
11 - Waiting To Die - 3:06
12 - A Way - 2:06
13 - True Strengths - 2:34
14 - Thorn - 3:20
15 - In Vain - 4:04

EAC-Log, CUE-Sheed & NFO:

Click to open spoiler
Exact Audio Copy V1.0 beta 3 from 29. August 2011

EAC extraction logfile from 27. February 2014, 23:51

Biohazard / Mata Leao

Used drive : PLEXTOR DVDR PX-810SA Adapter: 2 ID: 1

Read mode : Secure
Utilize accurate stream : Yes
Defeat audio cache : Yes
Make use of C2 pointers : No

Read offset correction : 48
Overread into Lead-In and Lead-Out : No
Fill up missing offset samples with silence : Yes
Delete leading and trailing silent blocks : No
Null samples used in CRC calculations : Yes
Used interface : Native Win32 interface for Win NT & 2000

Used output format : User Defined Encoder
Selected bitrate : 128 kBit/s
Quality : High
Add ID3 tag : No
Command line compressor : C:\Program Files (x86)\Exact Audio Copy\Flac\flac.exe
Additional command line options : -V -8 -T “Date=%year%” -T “Genre=%genre%” %source%

TOC of the extracted CD

Track | Start | Length | Start sector | End sector
———————————————————
1 | 0:00.32 | 2:13.38 | 32 | 10044
2 | 2:13.70 | 2:39.22 | 10045 | 21991
3 | 4:53.17 | 1:50.58 | 21992 | 30299
4 | 6:44.00 | 2:50.25 | 30300 | 43074
5 | 9:34.25 | 3:24.55 | 43075 | 58429
6 | 12:59.05 | 1:49.05 | 58430 | 66609
7 | 14:48.10 | 2:25.70 | 66610 | 77554
8 | 17:14.05 | 1:49.25 | 77555 | 85754
9 | 19:03.30 | 2:39.30 | 85755 | 97709
10 | 21:42.60 | 1:29.32 | 97710 | 104416
11 | 23:12.17 | 3:06.13 | 104417 | 118379
12 | 26:18.30 | 2:05.12 | 118380 | 127766
13 | 28:23.42 | 2:34.30 | 127767 | 139346
14 | 30:57.72 | 3:20.35 | 139347 | 154381
15 | 34:18.32 | 4:04.35 | 154382 | 172716

Range status and errors

Selected range

Filename C:\1996 – Mata Leao (Warner Bros. 9 46208-2)\Biohazard – Mata Leao.wav

Peak level 100.0 %
Extraction speed 7.3 X
Range quality 100.0 %
Test CRC 2F706849
Copy CRC 2F706849
Copy OK

No errors occurred

AccurateRip summary

Track 1 accurately ripped (confidence 12) [886DA02F] (AR v2)
Track 2 accurately ripped (confidence 13) [60612DF4] (AR v2)
Track 3 accurately ripped (confidence 13) [DFE72DF3] (AR v2)
Track 4 accurately ripped (confidence 13) [F98FEC66] (AR v2)
Track 5 accurately ripped (confidence 13) [FC91CA54] (AR v2)
Track 6 accurately ripped (confidence 13) [804884EB] (AR v2)
Track 7 accurately ripped (confidence 13) [4CAEFFEF] (AR v2)
Track 8 accurately ripped (confidence 13) [580E84BD] (AR v2)
Track 9 accurately ripped (confidence 13) [BB23750B] (AR v2)
Track 10 accurately ripped (confidence 13) [DF33D85D] (AR v2)
Track 11 accurately ripped (confidence 13) [C7A5ED96] (AR v2)
Track 12 accurately ripped (confidence 13) [35AB3AAE] (AR v2)
Track 13 accurately ripped (confidence 13) [1BA80D81] (AR v2)
Track 14 accurately ripped (confidence 13) [07AD17EE] (AR v2)
Track 15 accurately ripped (confidence 13) [F11BD5C4] (AR v2)

All tracks accurately ripped

End of status report

==== Log checksum CE4D43F1DA0E293244F8F5266061059E30C668B883034D5E817F0E96603CA579 ====

REM GENRE Metal
REM DATE 1996
REM DISCID C008FE0F
REM COMMENT “ExactAudioCopy v1.0b3”
PERFORMER “Biohazard”
TITLE “Mata Leao”
FILE “Biohazard – Mata Leao.flac” WAVE
TRACK 01 AUDIO
TITLE “Authority”
PERFORMER “Biohazard”
INDEX 00 00:00:00
INDEX 01 00:00:32
TRACK 02 AUDIO
TITLE “These Eyes (Have Seen)”
PERFORMER “Biohazard”
INDEX 00 02:13:67
INDEX 01 02:13:70
TRACK 03 AUDIO
TITLE “Stigmatized”
PERFORMER “Biohazard”
INDEX 00 04:53:15
INDEX 01 04:53:17
TRACK 04 AUDIO
TITLE “Control”
PERFORMER “Biohazard”
INDEX 00 06:43:72
INDEX 01 06:44:00
TRACK 05 AUDIO
TITLE “Cleansing”
PERFORMER “Biohazard”
INDEX 00 09:34:22
INDEX 01 09:34:25
TRACK 06 AUDIO
TITLE “Competition”
PERFORMER “Biohazard”
INDEX 00 12:59:02
INDEX 01 12:59:05
TRACK 07 AUDIO
TITLE “Modern Democracy”
PERFORMER “Biohazard”
INDEX 00 14:48:07
INDEX 01 14:48:10
TRACK 08 AUDIO
TITLE “Better Days”
PERFORMER “Biohazard”
INDEX 00 17:14:02
INDEX 01 17:14:05
TRACK 09 AUDIO
TITLE “Gravity”
PERFORMER “Biohazard”
INDEX 00 19:03:27
INDEX 01 19:03:30
TRACK 10 AUDIO
TITLE “A Lot To Learn”
PERFORMER “Biohazard”
INDEX 00 21:42:57
INDEX 01 21:42:60
TRACK 11 AUDIO
TITLE “Waiting To Die”
PERFORMER “Biohazard”
INDEX 00 23:12:15
INDEX 01 23:12:17
TRACK 12 AUDIO
TITLE “A Way”
PERFORMER “Biohazard”
INDEX 00 26:18:27
INDEX 01 26:18:30
TRACK 13 AUDIO
TITLE “True Strengths”
PERFORMER “Biohazard”
INDEX 00 28:23:40
INDEX 01 28:23:42
TRACK 14 AUDIO
TITLE “Thorn”
PERFORMER “Biohazard”
INDEX 00 30:57:70
INDEX 01 30:57:72
TRACK 15 AUDIO
TITLE “In Vain”
PERFORMER “Biohazard”
INDEX 00 34:18:30
INDEX 01 34:18:32


Leave a Reply

Your email address will not be published. Required fields are marked *

Enter the text from the image below
 

This site uses Akismet to reduce spam. Learn how your comment data is processed.