Biohazard – Mata Leão (Japanese Edition)




Artist: Biohazard
Year: 1996
Genre: Rock
Notes: Discogs
Add. Notes: Japanese Edition
Cover incl.: Yes
Encoder: FLAC
Bitrate: ~1000 kBit/s (44.1 kHz/16 Bit/s)
Log & Cue incl.: Yes
Size: 405,32 MB
Password: “slam” (without ” “)


All Downloads/Hosters are compatible

Download 1
Turbobit.net
Rapidgator.net
UploadEver.com
KatFile.com
UsersDrive.com
Download 2
Turbobit.net
Rapidgator.net
UploadEver.com
KatFile.com
UsersDrive.com
Download 3
Turbobit.net
Rapidgator.net
UploadEver.com
KatFile.com
UsersDrive.com

Tracklist:

1 - Authority - 2:14
2 - These Eyes (Have Seen) - 2:39
3 - Stigmatized - 1:51
4 - Control - 2:50
5 - Cleansing - 3:25
6 - Competition - 1:49
7 - Modern Democracy - 2:26
8 - Better Days - 1:49
9 - Gravity - 2:39
10 - A Lot To Learn - 1:29
11 - Waiting To Die - 3:06
12 - A Way - 2:06
13 - True Strengths - 2:34
14 - Thorn - 3:20
15 - In Vain - 4:04
16 - Three Point Back - 2:44

EAC-Log, CUE-Sheed & NFO:

Click to open spoiler
Exact Audio Copy V1.0 beta 3 from 29. August 2011

EAC extraction logfile from 17. March 2013, 13:31

Biohazard / Mata Leão [Japan, WPCR-676]

Used drive : TSSTcorpCDDVDW TS-L633J Adapter: 0 ID: 1

Read mode : Secure
Utilize accurate stream : Yes
Defeat audio cache : Yes
Make use of C2 pointers : No

Read offset correction : 6
Overread into Lead-In and Lead-Out : No
Fill up missing offset samples with silence : Yes
Delete leading and trailing silent blocks : No
Null samples used in CRC calculations : Yes
Used interface : Native Win32 interface for Win NT & 2000

Used output format : Internal WAV Routines
Sample format : 44.100 Hz; 16 Bit; Stereo

TOC of the extracted CD

Track | Start | Length | Start sector | End sector
———————————————————
1 | 0:00.00 | 2:13.62 | 0 | 10036
2 | 2:13.62 | 2:39.23 | 10037 | 21984
3 | 4:53.10 | 1:50.55 | 21985 | 30289
4 | 6:43.65 | 2:50.27 | 30290 | 43066
5 | 9:34.17 | 3:24.53 | 43067 | 58419
6 | 12:58.70 | 1:49.05 | 58420 | 66599
7 | 14:48.00 | 2:25.70 | 66600 | 77544
8 | 17:13.70 | 1:48.27 | 77545 | 85671
9 | 19:02.22 | 2:40.30 | 85672 | 97701
10 | 21:42.52 | 1:29.33 | 97702 | 104409
11 | 23:12.10 | 3:06.12 | 104410 | 118371
12 | 26:18.22 | 2:05.13 | 118372 | 127759
13 | 28:23.35 | 2:34.30 | 127760 | 139339
14 | 30:57.65 | 3:20.35 | 139340 | 154374
15 | 34:18.25 | 4:06.70 | 154375 | 172894
16 | 38:25.20 | 2:44.05 | 172895 | 185199

Range status and errors

Selected range

Filename D:\spv-av\BIOHAZARD\[1996] [CD] Mata Leao [Japan, WPCR-676]\Biohazard – Mata Leao [Japan, WPCR-676].wav

Peak level 100.0 %
Extraction speed 2.9 X
Range quality 100.0 %
Test CRC 6EB72222
Copy CRC 6EB72222
Copy OK

No errors occurred

AccurateRip summary

Track 1 accurately ripped (confidence 1) [B935AD46] (AR v1)
Track 2 not present in database
Track 3 not present in database
Track 4 not present in database
Track 5 not present in database
Track 6 not present in database
Track 7 accurately ripped (confidence 1) [5948F9A2] (AR v1)
Track 8 not present in database
Track 9 accurately ripped (confidence 1) [ED223FF1] (AR v1)
Track 10 accurately ripped (confidence 1) [25231A9D] (AR v1)
Track 11 not present in database
Track 12 not present in database
Track 13 not present in database
Track 14 not present in database
Track 15 accurately ripped (confidence 1) [1C24F2A2] (AR v1)
Track 16 not present in database

5 трек(и) скопированы точно
11 трек(и) не содержатся в базе AccurateRip

Some tracks could not be verified as accurate

End of status report

REM GENRE “NY Hardcore”
REM DATE 1996
REM DISCID C809A510
REM COMMENT “ExactAudioCopy v1.0b3”
PERFORMER “Biohazard”
TITLE “Mata Leao [Japan, WPCR-676]”
FILE “Biohazard – Mata Leao [Japan, WPCR-676].wav” WAVE
TRACK 01 AUDIO
TITLE “Authority”
PERFORMER “Biohazard”
INDEX 01 00:00:00
TRACK 02 AUDIO
TITLE “These Eyes (Have Seen)”
PERFORMER “Biohazard”
INDEX 01 02:13:62
TRACK 03 AUDIO
TITLE “Stigmatized”
PERFORMER “Biohazard”
INDEX 01 04:53:10
TRACK 04 AUDIO
TITLE “Control”
PERFORMER “Biohazard”
INDEX 01 06:43:65
TRACK 05 AUDIO
TITLE “Cleansing”
PERFORMER “Biohazard”
INDEX 01 09:34:17
TRACK 06 AUDIO
TITLE “Competition”
PERFORMER “Biohazard”
INDEX 01 12:58:70
TRACK 07 AUDIO
TITLE “Modern Democracy”
PERFORMER “Biohazard”
INDEX 01 14:48:00
TRACK 08 AUDIO
TITLE “Better Days”
PERFORMER “Biohazard”
INDEX 01 17:13:70
TRACK 09 AUDIO
TITLE “Gravity”
PERFORMER “Biohazard”
INDEX 01 19:02:22
TRACK 10 AUDIO
TITLE “A Lot To Learn”
PERFORMER “Biohazard”
INDEX 01 21:42:52
TRACK 11 AUDIO
TITLE “Waiting To Die”
PERFORMER “Biohazard”
INDEX 01 23:12:10
TRACK 12 AUDIO
TITLE “A Way”
PERFORMER “Biohazard”
INDEX 01 26:18:22
TRACK 13 AUDIO
TITLE “True Strengths”
PERFORMER “Biohazard”
INDEX 01 28:23:35
TRACK 14 AUDIO
TITLE “Thorn”
PERFORMER “Biohazard”
INDEX 01 30:57:65
TRACK 15 AUDIO
TITLE “In Vain”
PERFORMER “Biohazard”
INDEX 01 34:18:25
TRACK 16 AUDIO
TITLE “Three Point Back (Bonus)”
PERFORMER “Biohazard”
INDEX 00 38:22:52
INDEX 01 38:25:20

Leave a Reply

Your email address will not be published. Required fields are marked *

Enter the text from the image below
 

This site uses Akismet to reduce spam. Learn how your comment data is processed.