Biohazard – Kill Or Be Killed




Artist: Biohazard
Year: 2003
Genre: Hardcore
Notes: Discogs
Add. Notes:
Cover incl.: Yes
Encoder: FLAC
Bitrate: ~1000 kBit/s (44.1 kHz/16 Bit/s)
Log & Cue incl.: Yes
Size: 587,8 MB
Password: “slam” (without ” “)


All Downloads/Hosters are compatible

Download 1
Turbobit.net
Rapidgator.net
KatFile.com
UploadRar.com
Download 2
Turbobit.net
Rapidgator.net
KatFile.com
UploadRar.com

Tracklist:

1 - Never Forgive, Never Forget - 4:13
2 - Kill Or Be Killed - 2:39
3 - Heads Kicked In - 4:38
4 - Beaten Senseless - 2:08
5 - Make My Stand - 2:37
6 - Open Your Eyes - 3:15
7 - Penalty - 3:01
8 - World On Fire - 2:34
9 - Dead To Me - 4:05
10 - Hallowed Ground - 6:54

EAC-Log, CUE-Sheed & NFO:

Click to open spoiler
Exact Audio Copy V1.0 beta 3 from 29. August 2011

EAC extraction logfile from 27. February 2014, 22:56

Biohazard / Kill Or Be Killed

Used drive : PLEXTOR DVDR PX-810SA Adapter: 2 ID: 1

Read mode : Secure
Utilize accurate stream : Yes
Defeat audio cache : Yes
Make use of C2 pointers : No

Read offset correction : 48
Overread into Lead-In and Lead-Out : No
Fill up missing offset samples with silence : Yes
Delete leading and trailing silent blocks : No
Null samples used in CRC calculations : Yes
Used interface : Native Win32 interface for Win NT & 2000

Used output format : User Defined Encoder
Selected bitrate : 128 kBit/s
Quality : High
Add ID3 tag : No
Command line compressor : C:\Program Files (x86)\Exact Audio Copy\Flac\flac.exe
Additional command line options : -V -8 -T “Date=%year%” -T “Genre=%genre%” %source%

TOC of the extracted CD

Track | Start | Length | Start sector | End sector
———————————————————
1 | 0:00.00 | 4:14.13 | 0 | 19062
2 | 4:14.13 | 2:39.08 | 19063 | 30995
3 | 6:53.21 | 4:38.35 | 30996 | 51880
4 | 11:31.56 | 2:08.21 | 51881 | 61501
5 | 13:40.02 | 2:37.59 | 61502 | 73335
6 | 16:17.61 | 3:15.33 | 73336 | 87993
7 | 19:33.19 | 3:00.00 | 87994 | 101493
8 | 22:33.19 | 3:00.16 | 101494 | 115009
9 | 25:33.35 | 4:05.00 | 115010 | 133384
10 | 29:38.35 | 6:55.10 | 133385 | 164519

Range status and errors

Selected range

Filename C:\2003 – Kill Or Be Killed (BG2 84563)\Biohazard – Kill Or Be Killed.wav

Peak level 100.0 %
Extraction speed 7.1 X
Range quality 100.0 %
Test CRC 4CDF7938
Copy CRC 4CDF7938
Copy OK

No errors occurred

AccurateRip summary

Track 1 accurately ripped (confidence 2) [501D1FD7] (AR v2)
Track 2 accurately ripped (confidence 2) [C7EADB61] (AR v2)
Track 3 accurately ripped (confidence 2) [63C95531] (AR v2)
Track 4 accurately ripped (confidence 2) [D386B6CD] (AR v2)
Track 5 accurately ripped (confidence 2) [5A65DFDA] (AR v2)
Track 6 accurately ripped (confidence 2) [5C916CEF] (AR v2)
Track 7 accurately ripped (confidence 2) [9DF79D14] (AR v2)
Track 8 accurately ripped (confidence 2) [69A88714] (AR v2)
Track 9 accurately ripped (confidence 2) [7BB24CA1] (AR v2)
Track 10 accurately ripped (confidence 2) [CB387BE5] (AR v2)

All tracks accurately ripped

End of status report

==== Log checksum 48C724FF9C23A04512D5CF30EC5F8886BE1BEAB7BDD80133AF353EBE48B81ED8 ====

REM GENRE Metal
REM DATE 2003
REM DISCID 8A08910A
REM COMMENT “ExactAudioCopy v1.0b3”
PERFORMER “Biohazard”
TITLE “Kill Or Be Killed”
FILE “Biohazard – Kill Or Be Killed.flac” WAVE
TRACK 01 AUDIO
TITLE “Never Forgive, Never Forget”
PERFORMER “Biohazard”
FLAGS DCP
INDEX 01 00:00:00
TRACK 02 AUDIO
TITLE “Kill Or Be Killed”
PERFORMER “Biohazard”
FLAGS DCP
INDEX 01 04:14:13
TRACK 03 AUDIO
TITLE “Heads Kicked In”
PERFORMER “Biohazard”
FLAGS DCP
INDEX 01 06:53:21
TRACK 04 AUDIO
TITLE “Beaten Senseless”
PERFORMER “Biohazard”
FLAGS DCP
INDEX 01 11:31:56
TRACK 05 AUDIO
TITLE “Make My Stand”
PERFORMER “Biohazard”
FLAGS DCP
INDEX 01 13:40:02
TRACK 06 AUDIO
TITLE “Open Your Eyes”
PERFORMER “Biohazard”
FLAGS DCP
INDEX 01 16:17:61
TRACK 07 AUDIO
TITLE “Penalty”
PERFORMER “Biohazard”
FLAGS DCP
INDEX 01 19:33:19
TRACK 08 AUDIO
TITLE “World On Fire”
PERFORMER “Biohazard”
FLAGS DCP
INDEX 01 22:33:19
TRACK 09 AUDIO
TITLE “Dead To Me”
PERFORMER “Biohazard”
FLAGS DCP
INDEX 01 25:33:35
TRACK 10 AUDIO
TITLE “Hallowed Ground”
PERFORMER “Biohazard”
FLAGS DCP
INDEX 01 29:38:35


Leave a Reply

Your email address will not be published. Required fields are marked *

Enter the text from the image below
 

This site uses Akismet to reduce spam. Learn how your comment data is processed.