Biohazard – Kill Or Be Killed (Japanese Edition)




Artist: Biohazard
Year: 2003
Genre: Hardcore
Notes: Discogs
Add. Notes: Japanese Edition
Cover incl.: Yes
Encoder: FLAC
Bitrate: ~1000 kBit/s (44.1 kHz/16 Bit/s)
Log & Cue incl.: Yes
Size: 375,52 MB
Password: “slam” (without ” “)


All Downloads/Hosters are compatible

Download 1
Turbobit.net
Rapidgator.net
KatFile.com
UsersDrive.com
IntoUpload.net
Download 2
Turbobit.net
Rapidgator.net
KatFile.com
UsersDrive.com
IntoUpload.net
Download 3
Turbobit.net
Rapidgator.net
KatFile.com
UsersDrive.com
IntoUpload.net

Tracklist:

1. Intro
2. World On Fire
3. Never Forgive Never Forget
4. Kill Or Be Killed 
5. Heads Kicked In 
6. Beaten Senseless 
7. Make My Stand 
8. Open Your Eyes 
9. Penalty
10. Dead To Me
11. Hallowed Ground

EAC-Log, CUE-Sheed & NFO:

Click to open spoiler
Exact Audio Copy V1.0 beta 3 from 29. August 2011

EAC extraction logfile from 17. March 2013, 11:30

Biohazard / Kill Or Be Killed [Japan, CRCL-4815]

Used drive : TSSTcorpCDDVDW TS-L633J Adapter: 0 ID: 1

Read mode : Secure
Utilize accurate stream : Yes
Defeat audio cache : Yes
Make use of C2 pointers : No

Read offset correction : 6
Overread into Lead-In and Lead-Out : No
Fill up missing offset samples with silence : Yes
Delete leading and trailing silent blocks : No
Null samples used in CRC calculations : Yes
Used interface : Native Win32 interface for Win NT & 2000

Used output format : Internal WAV Routines
Sample format : 44.100 Hz; 16 Bit; Stereo

TOC of the extracted CD

Track | Start | Length | Start sector | End sector
———————————————————
1 | 0:00.00 | 0:27.05 | 0 | 2029
2 | 0:27.05 | 2:34.21 | 2030 | 13600
3 | 3:01.26 | 4:13.52 | 13601 | 32627
4 | 7:15.03 | 2:39.08 | 32628 | 44560
5 | 9:54.11 | 4:38.41 | 44561 | 65451
6 | 14:32.52 | 2:08.15 | 65452 | 75066
7 | 16:40.67 | 2:37.59 | 75067 | 86900
8 | 19:18.51 | 3:15.33 | 86901 | 101558
9 | 22:34.09 | 3:01.01 | 101559 | 115134
10 | 25:35.10 | 4:04.62 | 115135 | 133496
11 | 29:39.72 | 6:55.10 | 133497 | 164631

Range status and errors

Selected range

Filename D:\spv-av\BIOHAZARD\[2003] [CD] Kill Or Be Killed [Japan, CRCL-4815]\Biohazard – Kill Or Be Killed [Japan, CRCL-4815].wav

Peak level 100.0 %
Extraction speed 2.6 X
Range quality 100.0 %
Test CRC FC341024
Copy CRC FC341024
Copy OK

No errors occurred

AccurateRip summary

Track 1 cannot be verified as accurate (confidence 17) [2726D0D5], AccurateRip returned [D1DEA50D] (AR v2)
Track 2 cannot be verified as accurate (confidence 17) [CCEAAD91], AccurateRip returned [1D273300] (AR v2)
Track 3 cannot be verified as accurate (confidence 17) [1AA36F94], AccurateRip returned [401971F1] (AR v2)
Track 4 cannot be verified as accurate (confidence 17) [DEB10E6A], AccurateRip returned [428119EF] (AR v2)
Track 5 cannot be verified as accurate (confidence 17) [95B4D6EA], AccurateRip returned [BC4EFD32] (AR v2)
Track 6 cannot be verified as accurate (confidence 17) [B04DF929], AccurateRip returned [7C2D85C3] (AR v2)
Track 7 cannot be verified as accurate (confidence 17) [31E73254], AccurateRip returned [FBB9EA75] (AR v2)
Track 8 cannot be verified as accurate (confidence 17) [717893F0], AccurateRip returned [E120D542] (AR v2)
Track 9 cannot be verified as accurate (confidence 17) [BFAFC45A], AccurateRip returned [39570C61] (AR v2)
Track 10 cannot be verified as accurate (confidence 17) [1AE8CE51], AccurateRip returned [D06C84EB] (AR v2)
Track 11 cannot be verified as accurate (confidence 17) [94E8BEFE], AccurateRip returned [2F1E5F4B] (AR v2)

No tracks could be verified as accurate
You may have a different pressing from the one(s) in the database

End of status report

REM GENRE “NY Hardcore”
REM DATE 2003
REM DISCID 8908930B
REM COMMENT “ExactAudioCopy v1.0b3”
PERFORMER “Biohazard”
TITLE “Kill Or Be Killed [Japan, CRCL-4815]”
FILE “Biohazard – Kill Or Be Killed [Japan, CRCL-4815].wav” WAVE
TRACK 01 AUDIO
TITLE “Intro”
PERFORMER “Biohazard”
INDEX 01 00:00:00
TRACK 02 AUDIO
TITLE “World on Fire”
PERFORMER “Biohazard”
INDEX 01 00:27:05
TRACK 03 AUDIO
TITLE “Never Forgive Never Forget”
PERFORMER “Biohazard”
INDEX 01 03:01:26
TRACK 04 AUDIO
TITLE “Kill Or Be Killed”
PERFORMER “Biohazard”
INDEX 01 07:15:03
TRACK 05 AUDIO
TITLE “Heads Kicked In”
PERFORMER “Biohazard”
INDEX 01 09:54:11
TRACK 06 AUDIO
TITLE “Beaten Senseless”
PERFORMER “Biohazard”
INDEX 01 14:32:52
TRACK 07 AUDIO
TITLE “Make My Stand”
PERFORMER “Biohazard”
INDEX 01 16:40:67
TRACK 08 AUDIO
TITLE “Open Your Eyes”
PERFORMER “Biohazard”
INDEX 01 19:18:51
TRACK 09 AUDIO
TITLE “Penalty”
PERFORMER “Biohazard”
INDEX 01 22:34:09
TRACK 10 AUDIO
TITLE “Dead To Me”
PERFORMER “Biohazard”
INDEX 01 25:35:10
TRACK 11 AUDIO
TITLE “Hallowed Ground”
PERFORMER “Biohazard”
INDEX 01 29:39:72


Leave a Reply

Your email address will not be published. Required fields are marked *

This site uses Akismet to reduce spam. Learn how your comment data is processed.