Biohazard – Biohazard (Japanese Edition)




Artist: Biohazard
Year: 1990/1994
Genre: Metal
Notes: Discogs
Add. Notes: Japanese Edition
Cover incl.: Yes
Encoder: FLAC
Bitrate: ~900 kBit/s (44.1 kHz/16 Bit/s)
Log & Cue incl.: Yes
Size: 336,45 MB
Password: “slam” (without ” “)


All Downloads/Hosters are compatible

Download 1
Turbobit.net
Rapidgator.net
KatFile.com
UsersDrive.com
CloudShare.to
Download 2
Turbobit.net
Rapidgator.net
KatFile.com
UsersDrive.com
CloudShare.to
Download 3
Turbobit.net
Rapidgator.net
KatFile.com
UsersDrive.com
CloudShare.to

Tracklist:

1 Retribution 
2 Victory 
3 Blue Blood 
4 Howard Beach 
5 Wrong Side Of The Tracks 
6 Justified Violence 
7 Skinny Song 
8 Hold My Own 
9 Panic Attack 
10 Pain 
11 Survival Of The Fittest 
12 There & Back 
13 Scarred For Life

EAC-Log, CUE-Sheed & NFO:

Click to open spoiler
Exact Audio Copy V1.0 beta 3 from 29. August 2011

EAC extraction logfile from 17. March 2013, 23:11

Biohazard / Biohazard [1994 Reissue, Japan, APCY-8188]

Used drive : TSSTcorpCDDVDW TS-L633J Adapter: 0 ID: 1

Read mode : Secure
Utilize accurate stream : Yes
Defeat audio cache : Yes
Make use of C2 pointers : No

Read offset correction : 6
Overread into Lead-In and Lead-Out : No
Fill up missing offset samples with silence : Yes
Delete leading and trailing silent blocks : No
Null samples used in CRC calculations : Yes
Used interface : Native Win32 interface for Win NT & 2000

Used output format : Internal WAV Routines
Sample format : 44.100 Hz; 16 Bit; Stereo

TOC of the extracted CD

Track | Start | Length | Start sector | End sector
———————————————————
1 | 0:00.37 | 4:26.45 | 37 | 20031
2 | 4:27.07 | 2:28.63 | 20032 | 31194
3 | 6:55.70 | 2:29.52 | 31195 | 42421
4 | 9:25.47 | 2:09.45 | 42422 | 52141
5 | 11:35.17 | 3:54.35 | 52142 | 69726
6 | 15:29.52 | 4:09.00 | 69727 | 88401
7 | 19:38.52 | 2:27.65 | 88402 | 99491
8 | 22:06.42 | 2:38.55 | 99492 | 111396
9 | 24:45.22 | 3:30.48 | 111397 | 127194
10 | 28:15.70 | 2:35.00 | 127195 | 138819
11 | 30:50.70 | 2:16.15 | 138820 | 149034
12 | 33:07.10 | 4:01.70 | 149035 | 167179
13 | 37:09.05 | 4:15.47 | 167180 | 186351

Range status and errors

Selected range

Filename D:\spv-av\BIOHAZARD\[1990] [CD] Biohazard [1994 Reissue, Japan, APCY-8188]\Biohazard – Biohazard [1994 Reissue, Japan, APCY-8188].wav

Peak level 100.0 %
Extraction speed 2.6 X
Range quality 99.9 %
Test CRC 6B1E9753
Copy CRC 6B1E9753
Copy OK

No errors occurred

AccurateRip summary

Track 1 not present in database
Track 2 not present in database
Track 3 not present in database
Track 4 not present in database
Track 5 not present in database
Track 6 not present in database
Track 7 not present in database
Track 8 not present in database
Track 9 not present in database
Track 10 not present in database
Track 11 not present in database
Track 12 not present in database
Track 13 not present in database

None of the tracks are present in the AccurateRip database

End of status report

REM GENRE “NY Hardcore”
REM DATE 1990
REM DISCID CA09B40D
REM COMMENT “ExactAudioCopy v1.0b3”
PERFORMER “Biohazard ”
TITLE “Biohazard [1994 Reissue, Japan, APCY-8188]”
FILE “Biohazard – Biohazard [1994 Reissue, Japan, APCY-8188].flac” WAVE
TRACK 01 AUDIO
TITLE “Retribution”
PERFORMER “Biohazard ”
INDEX 00 00:00:00
INDEX 01 00:00:37
TRACK 02 AUDIO
TITLE “Victory”
PERFORMER “Biohazard ”
INDEX 01 04:27:07
TRACK 03 AUDIO
TITLE “Blue Blood”
PERFORMER “Biohazard ”
INDEX 01 06:55:70
TRACK 04 AUDIO
TITLE “Howard Beach”
PERFORMER “Biohazard ”
INDEX 01 09:25:47
TRACK 05 AUDIO
TITLE “Wrong Side Of The Tracks”
PERFORMER “Biohazard ”
INDEX 01 11:35:17
TRACK 06 AUDIO
TITLE “Justified Violence”
PERFORMER “Biohazard ”
INDEX 01 15:29:52
TRACK 07 AUDIO
TITLE “Skinny Song”
PERFORMER “Biohazard ”
INDEX 01 19:38:52
TRACK 08 AUDIO
TITLE “Hold My Own”
PERFORMER “Biohazard ”
INDEX 01 22:06:42
TRACK 09 AUDIO
TITLE “Pain”
PERFORMER “Biohazard ”
INDEX 01 24:45:22
TRACK 10 AUDIO
TITLE “Panic Attack”
PERFORMER “Biohazard ”
INDEX 01 28:15:70
TRACK 11 AUDIO
TITLE “Survival Of The Fittest”
PERFORMER “Biohazard ”
INDEX 01 30:50:70
TRACK 12 AUDIO
TITLE “There And Back”
PERFORMER “Biohazard ”
INDEX 01 33:07:10
TRACK 13 AUDIO
TITLE “Scarred For Life”
PERFORMER “Biohazard ”
INDEX 01 37:09:05

Leave a Reply

Your email address will not be published. Required fields are marked *

Enter the text from the image below
 

This site uses Akismet to reduce spam. Learn how your comment data is processed.