Billy Talent – Billy Talent (Japanese Edition)




Artist: Billy Talent
Year: 2003/2005
Genre: Punk
Notes: Discogs
Add. Notes: Japanese Edition
Cover incl.: Yes
Encoder: FLAC
Bitrate: ~1000 kBit/s (44.1 kHz/16 Bit/s)
Log & Cue incl.: Yes
Size: 361,5 MB
Password: “slam” (without ” “)


All Downloads/Hosters are compatible

Download 1
Turbobit.net
Rapidgator.net
KatFile.com
UploadRar.com
Download 2
Turbobit.net
Rapidgator.net
KatFile.com
UploadRar.com

Tracklist:

1 - This Is How It Goes - 3:27
2 - Living In The Shadows - 3:15
3 - Try Honesty - 4:13
4 - Line & Sinker - 3:37
5 - Lies - 2:58
6 - The Ex - 2:40
7 - River Below - 3:00
8 - Standing In The Rain - 3:20
9 - Cut The Curtains - 3:50
10 - Prisoners Of Today - 3:53
11 - Nothing To Lose - 3:38
12 - Voices Of Violence - 3:10
Bonus Tracks
13 - When I Was A Little Girl - 2:10
14 - Beachballs - 3:48

EAC-Log, CUE-Sheed & NFO:

Click to open spoiler
Exact Audio Copy V1.1 from 23. June 2015

EAC extraction logfile from 12. September 2016, 18:39

Billy Talent / Billy Talent

Used drive : HL-DT-STDVDRAM GH20NS15 Adapter: 1 ID: 0

Read mode : Secure
Utilize accurate stream : Yes
Defeat audio cache : Yes
Make use of C2 pointers : No

Read offset correction : 667
Overread into Lead-In and Lead-Out : No
Fill up missing offset samples with silence : Yes
Delete leading and trailing silent blocks : No
Null samples used in CRC calculations : Yes
Used interface : Native Win32 interface for Win NT & 2000
Gap handling : Appended to previous track

Used output format : User Defined Encoder
Selected bitrate : 768 kBit/s
Quality : High
Add ID3 tag : No
Command line compressor : C:\Program Files (x86)\Exact Audio Copy\FLAC\FLAC.EXE
Additional command line options : -6 -V -T “ARTIST=%artist%” -T “TITLE=%title%” -T “ALBUM=%albumtitle%” -T “DATE=%year%” -T “TRACKNUMBER=%tracknr%” -T “GENRE=%genre%” -T “COMMENT=%comment%” -T “BAND=%albuminterpret%” -T “ALBUMARTIST=%albuminterpret%” -T “COMPOSER=%composer%” %haslyrics%–tag-from-file=LYRICS=”%lyricsfile%”%haslyrics% -T “DISCNUMBER=%cdnumber%” -T “TOTALDISCS=%totalcds%” -T “TOTALTRACKS=%numtracks%” %hascover%–picture=”%coverfile%”%hascover% %source% -o %dest%

TOC of the extracted CD

Track | Start | Length | Start sector | End sector
———————————————————
1 | 0:00.00 | 3:27.10 | 0 | 15534
2 | 3:27.10 | 3:15.42 | 15535 | 30201
3 | 6:42.52 | 4:13.53 | 30202 | 49229
4 | 10:56.30 | 3:36.45 | 49230 | 65474
5 | 14:33.00 | 2:59.07 | 65475 | 78906
6 | 17:32.07 | 2:40.30 | 78907 | 90936
7 | 20:12.37 | 3:00.00 | 90937 | 104436
8 | 23:12.37 | 3:20.40 | 104437 | 119476
9 | 26:33.02 | 3:50.35 | 119477 | 136761
10 | 30:23.37 | 3:53.03 | 136762 | 154239
11 | 34:16.40 | 3:38.20 | 154240 | 170609
12 | 37:54.60 | 3:12.33 | 170610 | 185042
13 | 41:07.18 | 2:12.21 | 185043 | 194963
14 | 43:19.39 | 3:48.69 | 194964 | 212132
15 | 49:40.33 | 15:34.54 | 223533 | 293636

Track 1

Filename G:\For WHAT.CD\Billy Talent – Billy Talent (2003) [FLAC]\01 This is How It Goes.wav

Pre-gap length 0:00:02.00

Peak level 98.8 %
Extraction speed 3.4 X
Track quality 99.9 %
Test CRC 5D43FC17
Copy CRC 5D43FC17
Accurately ripped (confidence 2) [3D266CA6] (AR v2)
Copy OK

Track 2

Filename G:\For WHAT.CD\Billy Talent – Billy Talent (2003) [FLAC]\02 Living in the Shadows.wav

Peak level 98.8 %
Extraction speed 3.6 X
Track quality 99.9 %
Test CRC 18EA1091
Copy CRC 18EA1091
Accurately ripped (confidence 2) [819F805A] (AR v2)
Copy OK

Track 3

Filename G:\For WHAT.CD\Billy Talent – Billy Talent (2003) [FLAC]\03 Try Honesty.wav

Peak level 98.8 %
Extraction speed 5.1 X
Track quality 100.0 %
Test CRC 52B5E962
Copy CRC 52B5E962
Accurately ripped (confidence 2) [91F4915D] (AR v2)
Copy OK

Track 4

Filename G:\For WHAT.CD\Billy Talent – Billy Talent (2003) [FLAC]\04 Line & Sinker.wav

Peak level 98.8 %
Extraction speed 5.3 X
Track quality 100.0 %
Test CRC 728B077E
Copy CRC 728B077E
Accurately ripped (confidence 2) [F720B300] (AR v2)
Copy OK

Track 5

Filename G:\For WHAT.CD\Billy Talent – Billy Talent (2003) [FLAC]\05 Lies.wav

Peak level 98.8 %
Extraction speed 5.4 X
Track quality 100.0 %
Test CRC 35DDC438
Copy CRC 35DDC438
Accurately ripped (confidence 2) [B8571F11] (AR v2)
Copy OK

Track 6

Filename G:\For WHAT.CD\Billy Talent – Billy Talent (2003) [FLAC]\06 The Ex.wav

Peak level 98.8 %
Extraction speed 5.5 X
Track quality 100.0 %
Test CRC B84BFC9C
Copy CRC B84BFC9C
Accurately ripped (confidence 2) [C0A1E13F] (AR v2)
Copy OK

Track 7

Filename G:\For WHAT.CD\Billy Talent – Billy Talent (2003) [FLAC]\07 River Below.wav

Peak level 98.8 %
Extraction speed 5.8 X
Track quality 100.0 %
Test CRC E35DA29D
Copy CRC E35DA29D
Accurately ripped (confidence 2) [8682E6AD] (AR v2)
Copy OK

Track 8

Filename G:\For WHAT.CD\Billy Talent – Billy Talent (2003) [FLAC]\08 Standing in the Rain.wav

Peak level 98.8 %
Extraction speed 4.9 X
Track quality 99.9 %
Test CRC FB56EF96
Copy CRC FB56EF96
Accurately ripped (confidence 2) [D7DC6859] (AR v2)
Copy OK

Track 9

Filename G:\For WHAT.CD\Billy Talent – Billy Talent (2003) [FLAC]\09 Cut the Curtains.wav

Peak level 98.8 %
Extraction speed 6.4 X
Track quality 100.0 %
Test CRC 644FFD85
Copy CRC 644FFD85
Accurately ripped (confidence 2) [0B5E8AF8] (AR v2)
Copy OK

Track 10

Filename G:\For WHAT.CD\Billy Talent – Billy Talent (2003) [FLAC]\10 Prisoners of Today.wav

Peak level 98.8 %
Extraction speed 5.4 X
Track quality 99.9 %
Test CRC 88714BF5
Copy CRC 88714BF5
Accurately ripped (confidence 2) [1E3747F8] (AR v2)
Copy OK

Track 11

Filename G:\For WHAT.CD\Billy Talent – Billy Talent (2003) [FLAC]\11 Nothing to Lose.wav

Peak level 98.8 %
Extraction speed 6.9 X
Track quality 100.0 %
Test CRC 9FFEA662
Copy CRC 9FFEA662
Accurately ripped (confidence 2) [BCAC1BA9] (AR v2)
Copy OK

Track 12

Filename G:\For WHAT.CD\Billy Talent – Billy Talent (2003) [FLAC]\12 Voices of Violence.wav

Peak level 98.8 %
Extraction speed 6.6 X
Track quality 100.0 %
Test CRC E409B3D8
Copy CRC E409B3D8
Accurately ripped (confidence 2) [B99E9044] (AR v2)
Copy OK

Track 13

Filename G:\For WHAT.CD\Billy Talent – Billy Talent (2003) [FLAC]\13 When I was a Little Girl.wav

Pre-gap length 0:00:02.06

Peak level 97.2 %
Extraction speed 6.5 X
Track quality 100.0 %
Test CRC FA614120
Copy CRC FA614120
Accurately ripped (confidence 2) [F32EDADC] (AR v2)
Copy OK

Track 14

Filename G:\For WHAT.CD\Billy Talent – Billy Talent (2003) [FLAC]\14 Beachballs.wav

Pre-gap length 0:00:01.40

Peak level 95.2 %
Extraction speed 7.3 X
Track quality 100.0 %
Test CRC 2F1F6981
Copy CRC 2F1F6981
Accurately ripped (confidence 2) [FEDB2356] (AR v2)
Copy OK

All tracks accurately ripped

No errors occurred

End of status report

—- CUETools DB Plugin V2.1.6

[CTDB TOCID: q4hUGCb9z1SMJ44u3J4xt4b9VBY-] found
Submit result: q4hUGCb9z1SMJ44u3J4xt4b9VBY- has been confirmed
Track | CTDB Status
1 | (4/4) Accurately ripped
2 | (4/4) Accurately ripped
3 | (4/4) Accurately ripped
4 | (4/4) Accurately ripped
5 | (4/4) Accurately ripped
6 | (4/4) Accurately ripped
7 | (4/4) Accurately ripped
8 | (4/4) Accurately ripped
9 | (4/4) Accurately ripped
10 | (4/4) Accurately ripped
11 | (4/4) Accurately ripped
12 | (4/4) Accurately ripped
13 | (4/4) Accurately ripped
14 | (4/4) Accurately ripped

==== Log checksum 339920773E3C1A257F309E1E90ECCC7A9C9CD84CDCD28EA70BDFB981B071D9A9 ====

REM GENRE “Punk Rock”
REM DATE 2003
REM DISCID D60F4B0F
REM COMMENT “ExactAudioCopy v1.1”
CATALOG 4943674058075
PERFORMER “Billy Talent”
TITLE “Billy Talent”
FILE “01 This is How It Goes.wav” WAVE
TRACK 01 AUDIO
TITLE “This is How It Goes”
PERFORMER “Billy Talent”
ISRC USAT20301650
INDEX 01 00:00:00
FILE “02 Living in the Shadows.wav” WAVE
TRACK 02 AUDIO
TITLE “Living in the Shadows”
PERFORMER “Billy Talent”
ISRC USAT20301583
INDEX 01 00:00:00
FILE “03 Try Honesty.wav” WAVE
TRACK 03 AUDIO
TITLE “Try Honesty”
PERFORMER “Billy Talent”
ISRC USAT20301013
INDEX 01 00:00:00
FILE “04 Line & Sinker.wav” WAVE
TRACK 04 AUDIO
TITLE “Line & Sinker”
PERFORMER “Billy Talent”
ISRC USAT20301658
INDEX 01 00:00:00
FILE “05 Lies.wav” WAVE
TRACK 05 AUDIO
TITLE “Lies”
PERFORMER “Billy Talent”
ISRC USAT20301657
INDEX 01 00:00:00
FILE “06 The Ex.wav” WAVE
TRACK 06 AUDIO
TITLE “The Ex”
PERFORMER “Billy Talent”
ISRC USAT20301656
INDEX 01 00:00:00
FILE “07 River Below.wav” WAVE
TRACK 07 AUDIO
TITLE “River Below”
PERFORMER “Billy Talent”
ISRC USAT20301655
INDEX 01 00:00:00
FILE “08 Standing in the Rain.wav” WAVE
TRACK 08 AUDIO
TITLE “Standing in the Rain”
PERFORMER “Billy Talent”
ISRC USAT20301654
INDEX 01 00:00:00
FILE “09 Cut the Curtains.wav” WAVE
TRACK 09 AUDIO
TITLE “Cut the Curtains”
PERFORMER “Billy Talent”
ISRC USAT20301653
INDEX 01 00:00:00
FILE “10 Prisoners of Today.wav” WAVE
TRACK 10 AUDIO
TITLE “Prisoners of Today”
PERFORMER “Billy Talent”
ISRC USAT20301584
INDEX 01 00:00:00
FILE “11 Nothing to Lose.wav” WAVE
TRACK 11 AUDIO
TITLE “Nothing to Lose”
PERFORMER “Billy Talent”
ISRC USAT20301652
INDEX 01 00:00:00
FILE “12 Voices of Violence.wav” WAVE
TRACK 12 AUDIO
TITLE “Voices of Violence”
PERFORMER “Billy Talent”
ISRC USAT20301585
INDEX 01 00:00:00
TRACK 13 AUDIO
TITLE “When I was a Little Girl”
PERFORMER “Billy Talent”
ISRC USAT20302158
INDEX 00 03:10:27
FILE “13 When I was a Little Girl.wav” WAVE
INDEX 01 00:00:00
TRACK 14 AUDIO
TITLE “Beachballs”
PERFORMER “Billy Talent”
ISRC USAT20302159
INDEX 00 02:10:56
FILE “14 Beachballs.wav” WAVE
INDEX 01 00:00:00
TRACK 15 MODEx/2xxx
TITLE “Data”
PERFORMER “Billy Talent”
INDEX 00 03:48:69


Leave a Reply

Your email address will not be published. Required fields are marked *

This site uses Akismet to reduce spam. Learn how your comment data is processed.