Billy Talent – Billy Talent III




Artist: Billy Talent
Year: 2009
Genre: Punk
Notes: Discogs
Add. Notes:
Cover incl.: Yes
Encoder: FLAC
Bitrate: ~1000 kBit/s (44.1 kHz/16 Bit/s)
Log & Cue incl.: Yes
Size: 316 MB
Password: “slam” (without ” “)


All Downloads/Hosters are compatible

Download 1
KatFile.com
Turbobit.net
Rapidgator.net
Download 2
KatFile.com
Turbobit.net
Rapidgator.net

Tracklist:

1 - Devil On My Shoulder - 3:49
2 - Rusted From The Rain - 4:13
3 - Saint Veronika - 4:09
4 - Tears Into Wine - 4:12
5 - White Sparrows - 3:14
6 - Pocketful Of Dreams - 3:21
7 - The Dead Can't Testify - 4:27
8 - Diamond On A Landmine - 4:30
9 - Turn Your Back - 3:22
10 - Sudden Movements - 3:39
11 - Definition Of Destiny - 4:02

EAC-Log, CUE-Sheed & NFO:

Click to open spoiler
Exact Audio Copy V0.99 prebeta 4 from 23. January 2008

EAC extraction logfile from 13. July 2009, 20:00

Billy Talent / III

Used drive : LITE-ON LTR-40125S Adapter: 1 ID: 1

Read mode : Secure
Utilize accurate stream : Yes
Defeat audio cache : Yes
Make use of C2 pointers : No

Read offset correction : 12
Overread into Lead-In and Lead-Out : No
Fill up missing offset samples with silence : Yes
Delete leading and trailing silent blocks : No
Null samples used in CRC calculations : Yes
Used interface : Native Win32 interface for Win NT & 2000
Gap handling : Appended to previous track

Used output format : User Defined Encoder
Selected bitrate : 128 kBit/s
Quality : High
Add ID3 tag : No
Command line compressor : C:\Programme\FLAC\flac.exe
Additional command line options : -V -8 -T “artist=%a” -T “title=%t” -T “album=%g” -T “date=%y” -T “tracknumber=%n” -T “genre=%m” %s

TOC of the extracted CD

Track | Start | Length | Start sector | End sector
———————————————————
1 | 0:00.00 | 3:49.40 | 0 | 17214
2 | 3:49.40 | 4:13.23 | 17215 | 36212
3 | 8:02.63 | 4:09.44 | 36213 | 54931
4 | 12:12.32 | 4:12.35 | 54932 | 73866
5 | 16:24.67 | 3:14.47 | 73867 | 88463
6 | 19:39.39 | 3:21.05 | 88464 | 103543
7 | 23:00.44 | 4:27.32 | 103544 | 123600
8 | 27:28.01 | 4:30.60 | 123601 | 143910
9 | 31:58.61 | 3:22.17 | 143911 | 159077
10 | 35:21.03 | 3:39.21 | 159078 | 175523
11 | 39:00.24 | 4:02.23 | 175524 | 193696

Track 1

Filename D:\flactemp\Billy Talent – 2009 – III\01 – Devil On My Shoulder.wav

Pre-gap length 0:00:02.00

Peak level 98.7 %
Track quality 100.0 %
Test CRC 4823F286
Copy CRC 4823F286
Copy OK

Track 2

Filename D:\flactemp\Billy Talent – 2009 – III\02 – Rusted From The Rain.wav

Peak level 98.7 %
Track quality 100.0 %
Test CRC 12EAE40C
Copy CRC 12EAE40C
Copy OK

Track 3

Filename D:\flactemp\Billy Talent – 2009 – III\03 – Saint Veronika.wav

Pre-gap length 0:00:00.01

Peak level 100.0 %
Track quality 100.0 %
Test CRC EFC76534
Copy CRC EFC76534
Copy OK

Track 4

Filename D:\flactemp\Billy Talent – 2009 – III\04 – Tears Into Wine.wav

Pre-gap length 0:00:00.01

Peak level 98.7 %
Track quality 100.0 %
Test CRC 585AAF24
Copy CRC 585AAF24
Copy OK

Track 5

Filename D:\flactemp\Billy Talent – 2009 – III\05 – White Sparrows.wav

Pre-gap length 0:00:00.01

Peak level 98.7 %
Track quality 100.0 %
Test CRC 817BEEED
Copy CRC 817BEEED
Copy OK

Track 6

Filename D:\flactemp\Billy Talent – 2009 – III\06 – Pocketful Of Dreams.wav

Pre-gap length 0:00:00.01

Peak level 98.7 %
Track quality 100.0 %
Test CRC 9F116EB7
Copy CRC 9F116EB7
Copy OK

Track 7

Filename D:\flactemp\Billy Talent – 2009 – III\07 – The Dead Can’t Testify.wav

Pre-gap length 0:00:01.50

Peak level 98.7 %
Track quality 100.0 %
Test CRC C418DB1E
Copy CRC C418DB1E
Copy OK

Track 8

Filename D:\flactemp\Billy Talent – 2009 – III\08 – Diamond On A Landmine.wav

Pre-gap length 0:00:00.01

Peak level 98.7 %
Track quality 100.0 %
Test CRC 8729BE4F
Copy CRC 8729BE4F
Copy OK

Track 9

Filename D:\flactemp\Billy Talent – 2009 – III\09 – Turn Your Back.wav

Pre-gap length 0:00:00.01

Peak level 98.7 %
Track quality 99.9 %
Test CRC DFE98B25
Copy CRC DFE98B25
Copy OK

Track 10

Filename D:\flactemp\Billy Talent – 2009 – III\10 – Sudden Movements.wav

Pre-gap length 0:00:00.01

Peak level 98.7 %
Track quality 100.0 %
Test CRC B3F4913A
Copy CRC B3F4913A
Copy OK

Track 11

Filename D:\flactemp\Billy Talent – 2009 – III\11 – Definition Of Destiny.wav

Pre-gap length 0:00:00.01

Peak level 98.7 %
Track quality 100.0 %
Test CRC 5B087C71
Copy CRC 5B087C71
Copy OK

No errors occurred

End of status report

REM GENRE Rock
REM DATE 2009
REM DISCID 810A160B
REM COMMENT “ExactAudioCopy v0.99pb4”
FILE “Billy Talent – 2009 – III\01 – Devil On My Shoulder.wav” WAVE
TRACK 01 AUDIO
INDEX 01 00:00:00
FILE “Billy Talent – 2009 – III\02 – Rusted From The Rain.wav” WAVE
TRACK 02 AUDIO
INDEX 01 00:00:00
TRACK 03 AUDIO
INDEX 00 04:13:22
FILE “Billy Talent – 2009 – III\03 – Saint Veronika.wav” WAVE
INDEX 01 00:00:00
TRACK 04 AUDIO
INDEX 00 04:09:43
FILE “Billy Talent – 2009 – III\04 – Tears Into Wine.wav” WAVE
INDEX 01 00:00:00
TRACK 05 AUDIO
INDEX 00 04:12:34
FILE “Billy Talent – 2009 – III\05 – White Sparrows.wav” WAVE
INDEX 01 00:00:00
TRACK 06 AUDIO
INDEX 00 03:14:46
FILE “Billy Talent – 2009 – III\06 – Pocketful Of Dreams.wav” WAVE
INDEX 01 00:00:00
TRACK 07 AUDIO
INDEX 00 03:19:42
FILE “Billy Talent – 2009 – III\07 – The Dead Can’t Testify.wav” WAVE
INDEX 01 00:00:00
TRACK 08 AUDIO
INDEX 00 04:27:31
FILE “Billy Talent – 2009 – III\08 – Diamond On A Landmine.wav” WAVE
INDEX 01 00:00:00
TRACK 09 AUDIO
INDEX 00 04:30:59
FILE “Billy Talent – 2009 – III\09 – Turn Your Back.wav” WAVE
INDEX 01 00:00:00
TRACK 10 AUDIO
INDEX 00 03:22:16
FILE “Billy Talent – 2009 – III\10 – Sudden Movements.wav” WAVE
INDEX 01 00:00:00
TRACK 11 AUDIO
INDEX 00 03:39:20
FILE “Billy Talent – 2009 – III\11 – Definition Of Destiny.wav” WAVE
INDEX 01 00:00:00


Leave a Reply

Your email address will not be published. Required fields are marked *

This site uses Akismet to reduce spam. Learn how your comment data is processed.