Billy Talent – Billy Talent III (DigiPack Edition)




Artist: Billy Talent
Year: 2009
Genre: Punk
Notes: Discogs
Add. Notes:
Cover incl.: Yes
Encoder: FLAC
Bitrate: ~1000 kBit/s (44.1 kHz/16 Bit/s)
Log & Cue incl.: Yes
Size: 393,82 MB
Password: “slam” (without ” “)


All Downloads/Hosters are compatible

Download 1
Turbobit.net
NitroFlare.com
Rapidgator.net
Download 2
Turbobit.net
NitroFlare.com
Rapidgator.net

Tracklist:

1. Devil On My Shoulder 	
2. Rusted From The Rain 	
3. Saint Veronika 	
4. Tears Into Wine 	
5. White Sparrows 	
6. Pocketful Of Dreams 	
7. The Dead Can't Testify 	
8. Diamond On A Landmine 	
9. Turn Your Back 	
10. Sudden Movements 	
11. Definition Of Destiny 	
Demo Tracks
12. Tears Into Wine 	
13. White Sparrows 	
14. Turn Your Back

EAC-Log, CUE-Sheed & NFO:

Click to open spoiler
Exact Audio Copy V1.0 beta 3 from 29. August 2011

EAC extraction logfile from 22. September 2013, 14:45

Billy Talent / Billy Talent III

Used drive : TSSTcorpCDDVDW SH-224BB Adapter: 0 ID: 0

Read mode : Secure
Utilize accurate stream : Yes
Defeat audio cache : Yes
Make use of C2 pointers : No

Read offset correction : 6
Overread into Lead-In and Lead-Out : No
Fill up missing offset samples with silence : Yes
Delete leading and trailing silent blocks : No
Null samples used in CRC calculations : Yes
Used interface : Native Win32 interface for Win NT & 2000
Gap handling : Appended to previous track

Used output format : User Defined Encoder
Selected bitrate : 1024 kBit/s
Quality : High
Add ID3 tag : No
Command line compressor : C:\Program Files (x86)\Exact Audio Copy\Flac\flac.exe
Additional command line options : -8 -V -T “ARTIST=%artist%” -T “TITLE=%title%” -T “ALBUM=%albumtitle%” -T “DATE=%year%” -T “TRACKNUMBER=%tracknr%” -T “GENRE=%genre%” -T “PERFORMER=%albuminterpret%” -T “COMPOSER=%composer%” %haslyrics%–tag-from-file=LYRICS=”%lyricsfile%”%haslyrics% -T “ALBUMARTIST=%albumartist%” -T “DISCNUMBER=%cdnumber%” -T “TOTALDISCS=%totalcds%” -T “TOTALTRACKS=%numtracks%” -T “COMMENT=%comment%” %source% -o %dest%

TOC of the extracted CD

Track | Start | Length | Start sector | End sector
———————————————————
1 | 0:00.00 | 3:49.46 | 0 | 17220
2 | 3:49.46 | 4:13.23 | 17221 | 36218
3 | 8:02.69 | 4:09.44 | 36219 | 54937
4 | 12:12.38 | 4:12.35 | 54938 | 73872
5 | 16:24.73 | 3:14.47 | 73873 | 88469
6 | 19:39.45 | 3:21.05 | 88470 | 103549
7 | 23:00.50 | 4:27.32 | 103550 | 123606
8 | 27:28.07 | 4:30.60 | 123607 | 143916
9 | 31:58.67 | 3:22.17 | 143917 | 159083
10 | 35:21.09 | 3:39.21 | 159084 | 175529
11 | 39:00.30 | 4:01.20 | 175530 | 193624
12 | 43:01.50 | 3:51.37 | 193625 | 210986
13 | 46:53.12 | 3:58.34 | 210987 | 228870
14 | 50:51.46 | 3:22.19 | 228871 | 244039

Track 1

Filename D:\Musik\Billy Talent – Billy Talent III (2009) [FLAC]\01 – Devil on My Shoulder.wav

Pre-gap length 0:00:02.00

Peak level 98.7 %
Extraction speed 4.1 X
Track quality 100.0 %
Test CRC D9F705B6
Copy CRC D9F705B6
Accurately ripped (confidence 23) [E7FB8834] (AR v2)
Copy OK

Track 2

Filename D:\Musik\Billy Talent – Billy Talent III (2009) [FLAC]\02 – Rusted from the Rain.wav

Peak level 98.7 %
Extraction speed 3.8 X
Track quality 99.9 %
Test CRC CC867BB5
Copy CRC CC867BB5
Accurately ripped (confidence 23) [A0BACBC9] (AR v2)
Copy OK

Track 3

Filename D:\Musik\Billy Talent – Billy Talent III (2009) [FLAC]\03 – Saint Veronika.wav

Peak level 98.8 %
Extraction speed 5.0 X
Track quality 100.0 %
Test CRC EBE950AC
Copy CRC EBE950AC
Accurately ripped (confidence 23) [2AC21D61] (AR v2)
Copy OK

Track 4

Filename D:\Musik\Billy Talent – Billy Talent III (2009) [FLAC]\04 – Tears Into Wine.wav

Peak level 98.7 %
Extraction speed 5.5 X
Track quality 100.0 %
Test CRC E57A26D5
Copy CRC E57A26D5
Accurately ripped (confidence 23) [B2586057] (AR v2)
Copy OK

Track 5

Filename D:\Musik\Billy Talent – Billy Talent III (2009) [FLAC]\05 – White Sparrows.wav

Peak level 98.7 %
Extraction speed 5.5 X
Track quality 100.0 %
Test CRC D4A3F588
Copy CRC D4A3F588
Accurately ripped (confidence 23) [2597C49F] (AR v2)
Copy OK

Track 6

Filename D:\Musik\Billy Talent – Billy Talent III (2009) [FLAC]\06 – Pocketful of Dreams.wav

Peak level 98.7 %
Extraction speed 5.8 X
Track quality 100.0 %
Test CRC B126ED0A
Copy CRC B126ED0A
Accurately ripped (confidence 23) [3218A705] (AR v2)
Copy OK

Track 7

Filename D:\Musik\Billy Talent – Billy Talent III (2009) [FLAC]\07 – The Dead Can’t Testify.wav

Peak level 98.7 %
Extraction speed 6.3 X
Track quality 100.0 %
Test CRC 57154EC8
Copy CRC 57154EC8
Accurately ripped (confidence 23) [5209B51F] (AR v2)
Copy OK

Track 8

Filename D:\Musik\Billy Talent – Billy Talent III (2009) [FLAC]\08 – Diamond on a Landmine.wav

Peak level 98.7 %
Extraction speed 6.7 X
Track quality 100.0 %
Test CRC BD9C47D1
Copy CRC BD9C47D1
Accurately ripped (confidence 23) [D390983E] (AR v2)
Copy OK

Track 9

Filename D:\Musik\Billy Talent – Billy Talent III (2009) [FLAC]\09 – Turn Your Back.wav

Peak level 98.7 %
Extraction speed 6.6 X
Track quality 100.0 %
Test CRC 557EADB1
Copy CRC 557EADB1
Accurately ripped (confidence 23) [802E7016] (AR v2)
Copy OK

Track 10

Filename D:\Musik\Billy Talent – Billy Talent III (2009) [FLAC]\10 – Sudden Movements.wav

Peak level 98.7 %
Extraction speed 7.0 X
Track quality 100.0 %
Test CRC 1CA5068C
Copy CRC 1CA5068C
Accurately ripped (confidence 22) [ECEF53BB] (AR v2)
Copy OK

Track 11

Filename D:\Musik\Billy Talent – Billy Talent III (2009) [FLAC]\11 – Definition of Destiny.wav

Peak level 98.7 %
Extraction speed 7.2 X
Track quality 100.0 %
Test CRC C6CF9F9A
Copy CRC C6CF9F9A
Accurately ripped (confidence 23) [0454D06A] (AR v2)
Copy OK

Track 12

Filename D:\Musik\Billy Talent – Billy Talent III (2009) [FLAC]\12 – Tears Into Wine (Demo).wav

Peak level 100.0 %
Extraction speed 7.4 X
Track quality 100.0 %
Test CRC 0801F0A0
Copy CRC 0801F0A0
Accurately ripped (confidence 23) [20C417D6] (AR v2)
Copy OK

Track 13

Filename D:\Musik\Billy Talent – Billy Talent III (2009) [FLAC]\13 – White Sparrows (Demo).wav

Peak level 100.0 %
Extraction speed 7.7 X
Track quality 100.0 %
Test CRC 31A2EED0
Copy CRC 31A2EED0
Accurately ripped (confidence 22) [15F883BF] (AR v2)
Copy OK

Track 14

Filename D:\Musik\Billy Talent – Billy Talent III (2009) [FLAC]\14 – Turn Your Back (Demo).wav

Peak level 100.0 %
Extraction speed 7.7 X
Track quality 100.0 %
Test CRC 42CEC455
Copy CRC 42CEC455
Accurately ripped (confidence 23) [1E57C7AF] (AR v2)
Copy OK

All tracks accurately ripped

No errors occurred

End of status report

—- CUETools DB Plugin V2.1.3

[CTDB TOCID: O93zBW7fifXXy.DijVpAmAHKLDA-] found, Submit result: O93zBW7fifXXy.DijVpAmAHKLDA- has been confirmed
[585d1720] (28/28) Accurately ripped

==== Log checksum A70A81F6412734EE0A9CB14EF1F63AB7F56970718373101A949574699FF90CB7 ====

REM GENRE Rock
REM DATE 2009
REM DISCID AE0CB50E
REM COMMENT “ExactAudioCopy v1.0b3”
PERFORMER “Billy Talent”
TITLE “Billy Talent III”
FILE “01 – Devil on My Shoulder.wav” WAVE
TRACK 01 AUDIO
TITLE “Devil on My Shoulder”
PERFORMER “Billy Talent”
ISRC CAW110900043
FLAGS DCP
INDEX 01 00:00:00
FILE “02 – Rusted from the Rain.wav” WAVE
TRACK 02 AUDIO
TITLE “Rusted from the Rain”
PERFORMER “Billy Talent”
ISRC CAW110900044
FLAGS DCP
INDEX 01 00:00:00
FILE “03 – Saint Veronika.wav” WAVE
TRACK 03 AUDIO
TITLE “Saint Veronika”
PERFORMER “Billy Talent”
ISRC CAW110900045
FLAGS DCP
INDEX 01 00:00:00
FILE “04 – Tears Into Wine.wav” WAVE
TRACK 04 AUDIO
TITLE “Tears Into Wine”
PERFORMER “Billy Talent”
ISRC CAW110900045
FLAGS DCP
INDEX 01 00:00:00
FILE “05 – White Sparrows.wav” WAVE
TRACK 05 AUDIO
TITLE “White Sparrows”
PERFORMER “Billy Talent”
ISRC CAW110900047
FLAGS DCP
INDEX 01 00:00:00
FILE “06 – Pocketful of Dreams.wav” WAVE
TRACK 06 AUDIO
TITLE “Pocketful of Dreams”
PERFORMER “Billy Talent”
ISRC CAW110900048
FLAGS DCP
INDEX 01 00:00:00
FILE “07 – The Dead Can’t Testify.wav” WAVE
TRACK 07 AUDIO
TITLE “The Dead Can’t Testify”
PERFORMER “Billy Talent”
ISRC CAW110900049
FLAGS DCP
INDEX 01 00:00:00
FILE “08 – Diamond on a Landmine.wav” WAVE
TRACK 08 AUDIO
TITLE “Diamond on a Landmine”
PERFORMER “Billy Talent”
ISRC CAW110900050
FLAGS DCP
INDEX 01 00:00:00
FILE “09 – Turn Your Back.wav” WAVE
TRACK 09 AUDIO
TITLE “Turn Your Back”
PERFORMER “Billy Talent”
ISRC CAW110900050
FLAGS DCP
INDEX 01 00:00:00
FILE “10 – Sudden Movements.wav” WAVE
TRACK 10 AUDIO
TITLE “Sudden Movements”
PERFORMER “Billy Talent”
ISRC CAW110900052
FLAGS DCP
INDEX 01 00:00:00
FILE “11 – Definition of Destiny.wav” WAVE
TRACK 11 AUDIO
TITLE “Definition of Destiny”
PERFORMER “Billy Talent”
ISRC CAW110900053
FLAGS DCP
INDEX 01 00:00:00
FILE “12 – Tears Into Wine (Demo).wav” WAVE
TRACK 12 AUDIO
TITLE “Tears Into Wine (Demo)”
PERFORMER “Billy Talent”
ISRC CAW110900072
FLAGS DCP
INDEX 01 00:00:00
FILE “13 – White Sparrows (Demo).wav” WAVE
TRACK 13 AUDIO
TITLE “White Sparrows (Demo)”
PERFORMER “Billy Talent”
ISRC CAW110900070
FLAGS DCP
INDEX 01 00:00:00
FILE “14 – Turn Your Back (Demo).wav” WAVE
TRACK 14 AUDIO
TITLE “Turn Your Back (Demo)”
PERFORMER “Billy Talent”
ISRC CAW110900071
FLAGS DCP
INDEX 01 00:00:00


Leave a Reply

Your email address will not be published. Required fields are marked *

This site uses Akismet to reduce spam. Learn how your comment data is processed.