Billy Talent – Billy Talent II




Artist: Billy Talent
Year: 2006
Genre: Punk
Notes: Discogs
Add. Notes:
Cover incl.: Yes
Encoder: FLAC
Bitrate: ~1100 kBit/s (44.1 kHz/16 Bit/s)
Log & Cue incl.: Yes
Size: 360 MB
Password: “slam” (without ” “)


All Downloads/Hosters are compatible

Download 1
KatFile.com
Turbobit.net
Rapidgator.net
Download 2
KatFile.com
Turbobit.net
Rapidgator.net

Tracklist:

1 - Devil In A Midnight Mass - 2:52
2 - Red Flag - 3:16
3 - This Suffering - 3:56
4 - Worker Bees - 3:44
5 - Pins And Needles - 3:11
6 - Fallen Leaves - 3:19
7 - Where Is The Line? - 3:49
8 - Covered In Cowardice - 4:12
9 - Surrender - 4:06
10 - The Navy Song - 4:31
11 - Perfect World - 3:06
12 - Sympathy - 3:18
13 - Burn The Evidence - 3:40

EAC-Log, CUE-Sheed & NFO:

Click to open spoiler
Exact Audio Copy V0.99 prebeta 4 from 23. January 2008

EAC extraction logfile from 22. July 2008, 3:33

Billy Talent / Billy Talent II

Used drive : HL-DT-STDVD-RAM GSA-H55N Adapter: 0 ID: 0

Read mode : Secure
Utilize accurate stream : Yes
Defeat audio cache : Yes
Make use of C2 pointers : No

Read offset correction : 102
Overread into Lead-In and Lead-Out : No
Fill up missing offset samples with silence : Yes
Delete leading and trailing silent blocks : No
Null samples used in CRC calculations : Yes
Used interface : Native Win32 interface for Win NT & 2000
Gap handling : Appended to previous track

Used output format : User Defined Encoder
Selected bitrate : 320 kBit/s
Quality : High
Add ID3 tag : No
Command line compressor : C:\Program Files\FLAC\flac.exe
Additional command line options : -V -8 -T “artist=%a” -T “title=%t” -T “album=%g” -T “date=%y” -T “tracknumber=%n” -T “genre=%m” %s

TOC of the extracted CD

Track | Start | Length | Start sector | End sector
———————————————————
1 | 0:00.00 | 2:52.02 | 0 | 12901
2 | 2:52.02 | 3:16.63 | 12902 | 27664
3 | 6:08.65 | 3:56.72 | 27665 | 45436
4 | 10:05.62 | 3:44.54 | 45437 | 62290
5 | 13:50.41 | 3:11.17 | 62291 | 76632
6 | 17:01.58 | 3:19.15 | 76633 | 91572
7 | 20:20.73 | 3:49.54 | 91573 | 108801
8 | 24:10.52 | 4:12.17 | 108802 | 127718
9 | 28:22.69 | 4:06.45 | 127719 | 146213
10 | 32:29.39 | 4:31.41 | 146214 | 166579
11 | 37:01.05 | 3:06.55 | 166580 | 180584
12 | 40:07.60 | 3:18.03 | 180585 | 195437
13 | 43:25.63 | 3:40.35 | 195438 | 211972

Track 1

Filename C:\EACRIPS\01. Devil In A Midnight Mass.wav

Pre-gap length 0:00:02.00

Peak level 98.8 %
Track quality 99.9 %
Test CRC 055D2BE0
Copy CRC 055D2BE0
Accurately ripped (confidence 113) [3C2E461C]
Copy OK

Track 2

Filename C:\EACRIPS\02. Red Flag.wav

Peak level 98.8 %
Track quality 100.0 %
Test CRC D016707A
Copy CRC D016707A
Accurately ripped (confidence 113) [4206B593]
Copy OK

Track 3

Filename C:\EACRIPS\03. This Suffering.wav

Peak level 98.8 %
Track quality 100.0 %
Test CRC 68BE6CC1
Copy CRC 68BE6CC1
Accurately ripped (confidence 112) [EC897C53]
Copy OK

Track 4

Filename C:\EACRIPS\04. Worker Bees.wav

Peak level 98.8 %
Track quality 100.0 %
Test CRC B54F020B
Copy CRC B54F020B
Accurately ripped (confidence 111) [B20C0C36]
Copy OK

Track 5

Filename C:\EACRIPS\05. Pins And Needles.wav

Peak level 98.8 %
Track quality 100.0 %
Test CRC B6FC40FE
Copy CRC B6FC40FE
Accurately ripped (confidence 112) [8A7BCF0F]
Copy OK

Track 6

Filename C:\EACRIPS\06. Fallen Leaves.wav

Peak level 98.8 %
Track quality 100.0 %
Test CRC 565BA97B
Copy CRC 565BA97B
Accurately ripped (confidence 111) [0F095E98]
Copy OK

Track 7

Filename C:\EACRIPS\07. Where Is The Line.wav

Peak level 98.8 %
Track quality 100.0 %
Test CRC 5D80929B
Copy CRC 5D80929B
Accurately ripped (confidence 112) [DD79F400]
Copy OK

Track 8

Filename C:\EACRIPS\08. Covered In Cowardice.wav

Peak level 98.8 %
Track quality 100.0 %
Test CRC 637521A4
Copy CRC 637521A4
Accurately ripped (confidence 112) [8EDC2BBB]
Copy OK

Track 9

Filename C:\EACRIPS\09. Surrender.wav

Peak level 98.8 %
Track quality 100.0 %
Test CRC 057CF57A
Copy CRC 057CF57A
Accurately ripped (confidence 112) [CFCD789B]
Copy OK

Track 10

Filename C:\EACRIPS\10. The Navy Song.wav

Peak level 98.8 %
Track quality 100.0 %
Test CRC 2D7DDE19
Copy CRC 2D7DDE19
Accurately ripped (confidence 111) [8E196986]
Copy OK

Track 11

Filename C:\EACRIPS\11. Perfect World.wav

Peak level 98.8 %
Track quality 100.0 %
Test CRC 32EDFC68
Copy CRC 32EDFC68
Accurately ripped (confidence 110) [7BBCC802]
Copy OK

Track 12

Filename C:\EACRIPS\12. Sympathy.wav

Peak level 98.8 %
Track quality 100.0 %
Test CRC 41DBF3E9
Copy CRC 41DBF3E9
Accurately ripped (confidence 110) [3A73E43C]
Copy OK

Track 13

Filename C:\EACRIPS\13. Burn The Evidence.wav

Peak level 98.8 %
Track quality 100.0 %
Test CRC D2CDF9D3
Copy CRC D2CDF9D3
Accurately ripped (confidence 110) [9319FA1D]
Copy OK

All tracks accurately ripped

No errors occurred

End of status report

REM GENRE “Alternative & Punk”
REM DATE 2006
REM DISCID 8E0B0A0D
REM COMMENT “ExactAudioCopy v0.99pb4”
PERFORMER “Billy Talent”
TITLE “Billy Talent II”
FILE “01. Devil In A Midnight Mass.wav” WAVE
TRACK 01 AUDIO
TITLE “Devil In A Midnight Mass”
PERFORMER “Billy Talent”
INDEX 01 00:00:00
FILE “02. Red Flag.wav” WAVE
TRACK 02 AUDIO
TITLE “Red Flag”
PERFORMER “Billy Talent”
INDEX 01 00:00:00
FILE “03. This Suffering.wav” WAVE
TRACK 03 AUDIO
TITLE “This Suffering”
PERFORMER “Billy Talent”
INDEX 01 00:00:00
FILE “04. Worker Bees.wav” WAVE
TRACK 04 AUDIO
TITLE “Worker Bees”
PERFORMER “Billy Talent”
INDEX 01 00:00:00
FILE “05. Pins And Needles.wav” WAVE
TRACK 05 AUDIO
TITLE “Pins And Needles”
PERFORMER “Billy Talent”
INDEX 01 00:00:00
FILE “06. Fallen Leaves.wav” WAVE
TRACK 06 AUDIO
TITLE “Fallen Leaves”
PERFORMER “Billy Talent”
INDEX 01 00:00:00
FILE “07. Where Is The Line.wav” WAVE
TRACK 07 AUDIO
TITLE “Where Is The Line”
PERFORMER “Billy Talent”
INDEX 01 00:00:00
FILE “08. Covered In Cowardice.wav” WAVE
TRACK 08 AUDIO
TITLE “Covered In Cowardice”
PERFORMER “Billy Talent”
INDEX 01 00:00:00
FILE “09. Surrender.wav” WAVE
TRACK 09 AUDIO
TITLE “Surrender”
PERFORMER “Billy Talent”
INDEX 01 00:00:00
FILE “10. The Navy Song.wav” WAVE
TRACK 10 AUDIO
TITLE “The Navy Song”
PERFORMER “Billy Talent”
INDEX 01 00:00:00
FILE “11. Perfect World.wav” WAVE
TRACK 11 AUDIO
TITLE “Perfect World”
PERFORMER “Billy Talent”
INDEX 01 00:00:00
FILE “12. Sympathy.wav” WAVE
TRACK 12 AUDIO
TITLE “Sympathy”
PERFORMER “Billy Talent”
INDEX 01 00:00:00
FILE “13. Burn The Evidence.wav” WAVE
TRACK 13 AUDIO
TITLE “Burn The Evidence”
PERFORMER “Billy Talent”
INDEX 01 00:00:00


Leave a Reply

Your email address will not be published. Required fields are marked *

This site uses Akismet to reduce spam. Learn how your comment data is processed.