Billy Talent – Billy Talent II (Japanese Edition)




Artist: Billy Talent
Year: 2006
Genre: Rock
Notes: Discogs
Add. Notes: Japanese Edition
Cover incl.: Yes
Encoder: FLAC
Bitrate: ~1000 kBit/s (44.1 kHz/16 Bit/s)
Log & Cue incl.: Yes
Size: 406,08 MB
Password: “slam” (without ” “)


All Downloads/Hosters are compatible

Download 1
NitroFlare.com
KatFile.com
Turbobit.net
Rapidgator.net
UploadRar.com
Download 2
NitroFlare.com
KatFile.com
Turbobit.net
Rapidgator.net
UploadRar.com

Tracklist:

1 - Devil In A Midnight Mass - 2:52
2 - Red Flag - 3:16
3 - This Suffering - 3:56
4 - Worker Bees - 3:44
5 - Pins And Needles - 3:11
6 - Fallen Leaves - 3:19
7 - Where Is The Line? - 3:49
8 - Covered In Cowardice - 4:12
9 - Surrender - 4:06
10 - The Navy Song - 4:31
11 - Perfect World - 3:06
12 - Sympathy - 3:18
13 - Burn The Evidence - 3:40
Bonus Tracks
14 - Ever Fallen In Love (With Someone You Shouldn't've?) - 2:43
15 - Devil In A Midnight Mass (Demo) - 3:19

EAC-Log, CUE-Sheed & NFO:

Click to open spoiler
Exact Audio Copy V1.1 from 23. June 2015

EAC extraction logfile from 12. September 2016, 19:01

Billy Talent / Billy Talent II

Used drive : HL-DT-STDVDRAM GH20NS15 Adapter: 1 ID: 0

Read mode : Secure
Utilize accurate stream : Yes
Defeat audio cache : Yes
Make use of C2 pointers : No

Read offset correction : 667
Overread into Lead-In and Lead-Out : No
Fill up missing offset samples with silence : Yes
Delete leading and trailing silent blocks : No
Null samples used in CRC calculations : Yes
Used interface : Native Win32 interface for Win NT & 2000
Gap handling : Appended to previous track

Used output format : User Defined Encoder
Selected bitrate : 768 kBit/s
Quality : High
Add ID3 tag : No
Command line compressor : C:\Program Files (x86)\Exact Audio Copy\FLAC\FLAC.EXE
Additional command line options : -6 -V -T “ARTIST=%artist%” -T “TITLE=%title%” -T “ALBUM=%albumtitle%” -T “DATE=%year%” -T “TRACKNUMBER=%tracknr%” -T “GENRE=%genre%” -T “COMMENT=%comment%” -T “BAND=%albuminterpret%” -T “ALBUMARTIST=%albuminterpret%” -T “COMPOSER=%composer%” %haslyrics%–tag-from-file=LYRICS=”%lyricsfile%”%haslyrics% -T “DISCNUMBER=%cdnumber%” -T “TOTALDISCS=%totalcds%” -T “TOTALTRACKS=%numtracks%” %hascover%–picture=”%coverfile%”%hascover% %source% -o %dest%

TOC of the extracted CD

Track | Start | Length | Start sector | End sector
———————————————————
1 | 0:00.00 | 2:52.11 | 0 | 12910
2 | 2:52.11 | 3:16.61 | 12911 | 27671
3 | 6:08.72 | 3:57.02 | 27672 | 45448
4 | 10:05.74 | 3:44.54 | 45449 | 62302
5 | 13:50.53 | 3:11.14 | 62303 | 76641
6 | 17:01.67 | 3:19.15 | 76642 | 91581
7 | 20:21.07 | 3:49.54 | 91582 | 108810
8 | 24:10.61 | 4:12.20 | 108811 | 127730
9 | 28:23.06 | 4:06.45 | 127731 | 146225
10 | 32:29.51 | 4:31.41 | 146226 | 166591
11 | 37:01.17 | 3:06.55 | 166592 | 180596
12 | 40:07.72 | 3:18.03 | 180597 | 195449
13 | 43:26.00 | 3:40.74 | 195450 | 212023
14 | 47:06.74 | 2:44.13 | 212024 | 224336
15 | 49:51.12 | 3:19.20 | 224337 | 239281
16 | 55:42.32 | 5:33.74 | 250682 | 275730

Track 1

Filename G:\For WHAT.CD\Billy Talent – Billy Talent II (2006) [FLAC]\01 Devil In A Midnight Mass.wav

Pre-gap length 0:00:02.00

Peak level 98.8 %
Extraction speed 4.2 X
Track quality 100.0 %
Test CRC 9B52FD64
Copy CRC 9B52FD64
Accurately ripped (confidence 1) [BACC0962] (AR v2)
Copy OK

Track 2

Filename G:\For WHAT.CD\Billy Talent – Billy Talent II (2006) [FLAC]\02 Red Flag.wav

Peak level 98.8 %
Extraction speed 4.4 X
Track quality 100.0 %
Test CRC 085448B7
Copy CRC 085448B7
Accurately ripped (confidence 1) [6D3E6353] (AR v2)
Copy OK

Track 3

Filename G:\For WHAT.CD\Billy Talent – Billy Talent II (2006) [FLAC]\03 This Suffering.wav

Peak level 98.8 %
Extraction speed 4.1 X
Track quality 99.9 %
Test CRC 581E8820
Copy CRC 581E8820
Accurately ripped (confidence 1) [6437C0F0] (AR v2)
Copy OK

Track 4

Filename G:\For WHAT.CD\Billy Talent – Billy Talent II (2006) [FLAC]\04 Worker Bees.wav

Peak level 98.8 %
Extraction speed 5.2 X
Track quality 100.0 %
Test CRC B54F020B
Copy CRC B54F020B
Accurately ripped (confidence 1) [206111B8] (AR v2)
Copy OK

Track 5

Filename G:\For WHAT.CD\Billy Talent – Billy Talent II (2006) [FLAC]\05 Pins And Needles.wav

Peak level 98.8 %
Extraction speed 5.3 X
Track quality 100.0 %
Test CRC 3855F2BB
Copy CRC 3855F2BB
Accurately ripped (confidence 1) [02FCA80C] (AR v2)
Copy OK

Track 6

Filename G:\For WHAT.CD\Billy Talent – Billy Talent II (2006) [FLAC]\06 Fallen Leaves.wav

Peak level 98.8 %
Extraction speed 4.6 X
Track quality 99.9 %
Test CRC 9771D452
Copy CRC 9771D452
Accurately ripped (confidence 1) [83EED28D] (AR v2)
Copy OK

Track 7

Filename G:\For WHAT.CD\Billy Talent – Billy Talent II (2006) [FLAC]\07 Where Is The Line.wav

Peak level 98.8 %
Extraction speed 5.0 X
Track quality 99.9 %
Test CRC 951C8E04
Copy CRC 951C8E04
Accurately ripped (confidence 1) [41DFB924] (AR v2)
Copy OK

Track 8

Filename G:\For WHAT.CD\Billy Talent – Billy Talent II (2006) [FLAC]\08 Covered In Cowardice.wav

Peak level 98.8 %
Extraction speed 6.4 X
Track quality 100.0 %
Test CRC E9629A21
Copy CRC E9629A21
Accurately ripped (confidence 1) [DECFBEC4] (AR v2)
Copy OK

Track 9

Filename G:\For WHAT.CD\Billy Talent – Billy Talent II (2006) [FLAC]\09 Surrender.wav

Peak level 98.8 %
Extraction speed 6.5 X
Track quality 100.0 %
Test CRC 057CF57A
Copy CRC 057CF57A
Accurately ripped (confidence 1) [72AB5D1F] (AR v2)
Copy OK

Track 10

Filename G:\For WHAT.CD\Billy Talent – Billy Talent II (2006) [FLAC]\10 The Navy Song.wav

Peak level 98.8 %
Extraction speed 5.9 X
Track quality 99.9 %
Test CRC 2D7DDE19
Copy CRC 2D7DDE19
Accurately ripped (confidence 1) [10E73508] (AR v2)
Copy OK

Track 11

Filename G:\For WHAT.CD\Billy Talent – Billy Talent II (2006) [FLAC]\11 Perfect World.wav

Peak level 98.8 %
Extraction speed 6.8 X
Track quality 100.0 %
Test CRC 32EDFC68
Copy CRC 32EDFC68
Accurately ripped (confidence 1) [035D8ED4] (AR v2)
Copy OK

Track 12

Filename G:\For WHAT.CD\Billy Talent – Billy Talent II (2006) [FLAC]\12 Sympathy.wav

Peak level 98.8 %
Extraction speed 7.1 X
Track quality 100.0 %
Test CRC 41DBF3E9
Copy CRC 41DBF3E9
Accurately ripped (confidence 1) [87CEE12F] (AR v2)
Copy OK

Track 13

Filename G:\For WHAT.CD\Billy Talent – Billy Talent II (2006) [FLAC]\13 Burn The Evidence.wav

Peak level 98.8 %
Extraction speed 7.1 X
Track quality 100.0 %
Test CRC 82C03DC3
Copy CRC 82C03DC3
Accurately ripped (confidence 1) [06C0BE35] (AR v2)
Copy OK

Track 14

Filename G:\For WHAT.CD\Billy Talent – Billy Talent II (2006) [FLAC]\14 Ever Fallen In Love [With Someone You Shouldn’t’ve].wav

Pre-gap length 0:00:01.22

Peak level 91.2 %
Extraction speed 7.2 X
Track quality 100.0 %
Test CRC 84AF1197
Copy CRC 84AF1197
Accurately ripped (confidence 1) [7D3ACE9D] (AR v2)
Copy OK

Track 15

Filename G:\For WHAT.CD\Billy Talent – Billy Talent II (2006) [FLAC]\15 Devil In The Midnight Mass [Demo].wav

Pre-gap length 0:00:02.14

Peak level 98.8 %
Extraction speed 7.6 X
Track quality 100.0 %
Test CRC 7906B3CA
Copy CRC 7906B3CA
Accurately ripped (confidence 1) [44A874D0] (AR v2)
Copy OK

All tracks accurately ripped

No errors occurred

End of status report

—- CUETools DB Plugin V2.1.6

[CTDB TOCID: Qrw16Tl1M6BmY7WmEcmH.R30Mxc-] found
Submit result: Qrw16Tl1M6BmY7WmEcmH.R30Mxc- has been confirmed
Track | CTDB Status
1 | (3/3) Accurately ripped
2 | (3/3) Accurately ripped
3 | (3/3) Accurately ripped
4 | (3/3) Accurately ripped
5 | (3/3) Accurately ripped
6 | (3/3) Accurately ripped
7 | (3/3) Accurately ripped
8 | (3/3) Accurately ripped
9 | (3/3) Accurately ripped
10 | (3/3) Accurately ripped
11 | (3/3) Accurately ripped
12 | (3/3) Accurately ripped
13 | (3/3) Accurately ripped
14 | (3/3) Accurately ripped
15 | (3/3) Accurately ripped

==== Log checksum 73E071C5C44592812BE0A6F85F5339A095122A3F1BDF416F770202B8F466C5A3 ====

REM GENRE “Alt. Rock”
REM DATE 2006
REM DISCID CA0E5C10
REM COMMENT “ExactAudioCopy v1.1”
CATALOG 4943674066094
PERFORMER “Billy Talent”
TITLE “Billy Talent II”
FILE “01 Devil In A Midnight Mass.wav” WAVE
TRACK 01 AUDIO
TITLE “Devil In A Midnight Mass”
PERFORMER “Billy Talent”
ISRC USAT20611592
INDEX 01 00:00:00
FILE “02 Red Flag.wav” WAVE
TRACK 02 AUDIO
TITLE “Red Flag”
PERFORMER “Billy Talent”
ISRC USAT20612281
INDEX 01 00:00:00
FILE “03 This Suffering.wav” WAVE
TRACK 03 AUDIO
TITLE “This Suffering”
PERFORMER “Billy Talent”
ISRC USAT20612282
INDEX 01 00:00:00
FILE “04 Worker Bees.wav” WAVE
TRACK 04 AUDIO
TITLE “Worker Bees”
PERFORMER “Billy Talent”
ISRC USAT20612284
INDEX 01 00:00:00
FILE “05 Pins And Needles.wav” WAVE
TRACK 05 AUDIO
TITLE “Pins And Needles”
PERFORMER “Billy Talent”
ISRC USAT20612285
INDEX 01 00:00:00
FILE “06 Fallen Leaves.wav” WAVE
TRACK 06 AUDIO
TITLE “Fallen Leaves”
PERFORMER “Billy Talent”
ISRC USAT20612286
INDEX 01 00:00:00
FILE “07 Where Is The Line.wav” WAVE
TRACK 07 AUDIO
TITLE “Where Is The Line?”
PERFORMER “Billy Talent”
ISRC USAT20612287
INDEX 01 00:00:00
FILE “08 Covered In Cowardice.wav” WAVE
TRACK 08 AUDIO
TITLE “Covered In Cowardice”
PERFORMER “Billy Talent”
ISRC USAT20612288
INDEX 01 00:00:00
FILE “09 Surrender.wav” WAVE
TRACK 09 AUDIO
TITLE “Surrender”
PERFORMER “Billy Talent”
ISRC USAT20612289
INDEX 01 00:00:00
FILE “10 The Navy Song.wav” WAVE
TRACK 10 AUDIO
TITLE “The Navy Song”
PERFORMER “Billy Talent”
ISRC USAT20612290
INDEX 01 00:00:00
FILE “11 Perfect World.wav” WAVE
TRACK 11 AUDIO
TITLE “Perfect World”
PERFORMER “Billy Talent”
ISRC USAT20611901
INDEX 01 00:00:00
FILE “12 Sympathy.wav” WAVE
TRACK 12 AUDIO
TITLE “Sympathy”
PERFORMER “Billy Talent”
ISRC USAT20612291
INDEX 01 00:00:00
FILE “13 Burn The Evidence.wav” WAVE
TRACK 13 AUDIO
TITLE “Burn The Evidence”
PERFORMER “Billy Talent”
ISRC USAT20612292
INDEX 01 00:00:00
TRACK 14 AUDIO
TITLE “Ever Fallen In Love [With Someone You Shouldn’t’ve]”
PERFORMER “Billy Talent”
ISRC USAT20611902
INDEX 00 03:39:52
FILE “14 Ever Fallen In Love [With Someone You Shouldn’t’ve].wav” WAVE
INDEX 01 00:00:00
TRACK 15 AUDIO
TITLE “Devil In The Midnight Mass [Demo]”
PERFORMER “Billy Talent”
ISRC USAT20613394
INDEX 00 02:41:74
FILE “15 Devil In The Midnight Mass [Demo].wav” WAVE
INDEX 01 00:00:00
TRACK 16 MODEx/2xxx
TITLE “DataTrack”
PERFORMER “Billy Talent”
INDEX 00 03:19:20


Leave a Reply

Your email address will not be published. Required fields are marked *

This site uses Akismet to reduce spam. Learn how your comment data is processed.