Billy Talent – Billy Talent – 10th Anniversary Edition




Artist: Billy Talent
Year: 2013
Genre: Punk
Notes: Discogs
Add. Notes:
Cover incl.: Yes
Encoder: FLAC
Bitrate: ~1000 kBit/s (44.1 kHz/16 Bit/s)
Log & Cue incl.: Yes
Password: “slam” (without ” “)


All Downloads/Hosters are compatible

Download 1
Turbobit.net
KatFile.com
Rapidgator.net
Usersdrive.com
Download 2
Turbobit.net
KatFile.com
Rapidgator.net
Usersdrive.com

Tracklist:

1-1 - This Is How It Goes - 3:27
1-2 - Living In The Shadows - 3:15
1-3 - Try Honesty - 4:13
1-4 - Line & Sinker - 3:37
1-5 - Lies - 2:58
1-6 - The Ex - 2:40
1-7 - River Below - 3:00
1-8 - Standing In The Rain - 3:20
1-9 - Cut The Curtains - 3:50
1-10 - Prisoners Of Today - 3:53
1-11 - Nothing To Lose - 3:38
1-12 - Voices Of Violence - 3:10
2-1 - This Is How It Goes (Demo Version) - 3:07
2-2 - Living In The Shadows (Demo Version) - 3:15
2-3 - Try Honesty (Demo Version) - 4:03
2-4 - Line & Sinker (Live) - 4:50
2-5 - Lies (Live Acoustic) - 3:05
2-6 - The Ex (Demo Version) - 2:36
2-7 - River Below (Live) - 3:00
2-8 - Standing In The Rain (Live) - 3:34
2-9 - Cut The Curtains (Demo Version) - 3:38
2-10 - Prisoners Of Today (Demo Version) - 3:43
2-11 - Nothing To Lose (Live) - 3:59
2-12 - Voices Of Violence (Live) - 3:18

EAC-Log, CUE-Sheed & NFO:

Click to open spoiler
X Lossless Decoder version 20130720 (144.0)

XLD extraction logfile from 2014-03-16 16:52:00 -0400

Billy Talent / Billy Talent [10th Anniversary Edition]

Used drive : TSSTcorp CDDVDW SH-S222A (revision SB02)
Media type : Pressed CD

Ripper mode : XLD Secure Ripper
Disable audio cache : OK for the drive with a cache less than 1375KiB
Make use of C2 pointers : NO
Read offset correction : 6
Max retry count : 20
Gap status : Analyzed, Appended (except HTOA)

TOC of the extracted CD
Track | Start | Length | Start sector | End sector
———————————————————
1 | 00:00:00 | 03:08:42 | 0 | 14141
2 | 03:08:42 | 03:15:62 | 14142 | 28828
3 | 06:24:29 | 04:05:42 | 28829 | 47245
4 | 10:29:71 | 04:51:54 | 47246 | 69124
5 | 15:21:50 | 03:05:48 | 69125 | 83047
6 | 18:27:23 | 02:36:52 | 83048 | 94799
7 | 21:04:00 | 03:00:17 | 94800 | 108316
8 | 24:04:17 | 03:34:41 | 108317 | 124407
9 | 27:38:58 | 03:38:47 | 124408 | 140804
10 | 31:17:30 | 03:43:17 | 140805 | 157546
11 | 35:00:47 | 03:59:29 | 157547 | 175500
12 | 39:00:01 | 03:20:37 | 175501 | 190537

AccurateRip Summary (DiscID: 0012d582-00afce0e-9409ec0c)
Track 01 : OK (v2, confidence 3/3)
Track 02 : OK (v2, confidence 3/3)
Track 03 : OK (v2, confidence 3/3)
Track 04 : OK (v2, confidence 3/3)
Track 05 : OK (v2, confidence 3/3)
Track 06 : OK (v2, confidence 3/3)
Track 07 : OK (v2, confidence 3/3)
Track 08 : OK (v2, confidence 3/3)
Track 09 : OK (v2, confidence 3/3)
Track 10 : OK (v2, confidence 3/3)
Track 11 : OK (v2, confidence 3/3)
Track 12 : OK (v2, confidence 3/3)
->All tracks accurately ripped.

All Tracks
Album gain : -10.19 dB
Peak : 1.000000
Statistics
Read error : 0
Jitter error (maybe fixed) : 0
Retry sector count : 0
Damaged sector count : 0

Track 01
Filename : /Volumes/320 GB -/TORRENT HOSTS/Billy Talent – 10th Anniversary Edition/Disc 2 (Rarities)/02 – 01 – This is How it Goes (Demo Version).flac
Pre-gap length : 00:02:00

Track gain : -10.14 dB
Peak : 0.989227
CRC32 hash (test run) : 3C9F8AEC
CRC32 hash : 3C9F8AEC
CRC32 hash (skip zero) : C8611E18
AccurateRip v1 signature : 3F75A5DA
AccurateRip v2 signature : 50BBAB4A
->Accurately ripped (v2, confidence 3/3)
Statistics
Read error : 0
Jitter error (maybe fixed) : 0
Retry sector count : 0
Damaged sector count : 0

Track 02
Filename : /Volumes/320 GB -/TORRENT HOSTS/Billy Talent – 10th Anniversary Edition/Disc 2 (Rarities)/02 – 02 – Living in the Shadows (Demo Version).flac

Track gain : -10.70 dB
Peak : 0.995483
CRC32 hash (test run) : 15654B7F
CRC32 hash : 15654B7F
CRC32 hash (skip zero) : 1EE90649
AccurateRip v1 signature : 3F6A7E52
AccurateRip v2 signature : 19D43FF5
->Accurately ripped (v2, confidence 3/3)
Statistics
Read error : 0
Jitter error (maybe fixed) : 0
Retry sector count : 0
Damaged sector count : 0

Track 03
Filename : /Volumes/320 GB -/TORRENT HOSTS/Billy Talent – 10th Anniversary Edition/Disc 2 (Rarities)/02 – 03 – Try Honesty (Demo Version).flac

Track gain : -10.13 dB
Peak : 1.000000
CRC32 hash (test run) : A5865C81
CRC32 hash : A5865C81
CRC32 hash (skip zero) : 943AABB7
AccurateRip v1 signature : F53DE653
AccurateRip v2 signature : 5FB596C9
->Accurately ripped (v2, confidence 3/3)
Statistics
Read error : 0
Jitter error (maybe fixed) : 0
Retry sector count : 0
Damaged sector count : 0

Track 04
Filename : /Volumes/320 GB -/TORRENT HOSTS/Billy Talent – 10th Anniversary Edition/Disc 2 (Rarities)/02 – 04 – Line & Sinker (Live).flac

Track gain : -9.98 dB
Peak : 1.000000
CRC32 hash (test run) : 84E3417E
CRC32 hash : 84E3417E
CRC32 hash (skip zero) : 564D74E4
AccurateRip v1 signature : 27D34B73
AccurateRip v2 signature : 0A7AB5E0
->Accurately ripped (v2, confidence 3/3)
Statistics
Read error : 0
Jitter error (maybe fixed) : 0
Retry sector count : 0
Damaged sector count : 0

Track 05
Filename : /Volumes/320 GB -/TORRENT HOSTS/Billy Talent – 10th Anniversary Edition/Disc 2 (Rarities)/02 – 05 – Lies (Live Acoustic).flac

Track gain : -9.10 dB
Peak : 1.000000
CRC32 hash (test run) : 24ABB92C
CRC32 hash : 24ABB92C
CRC32 hash (skip zero) : F0722AFC
AccurateRip v1 signature : 7FC7A48D
AccurateRip v2 signature : CB800907
->Accurately ripped (v2, confidence 3/3)
Statistics
Read error : 0
Jitter error (maybe fixed) : 0
Retry sector count : 0
Damaged sector count : 0

Track 06
Filename : /Volumes/320 GB -/TORRENT HOSTS/Billy Talent – 10th Anniversary Edition/Disc 2 (Rarities)/02 – 06 – The Ex (Demo Version).flac

Track gain : -11.16 dB
Peak : 0.999969
CRC32 hash (test run) : 230AA775
CRC32 hash : 230AA775
CRC32 hash (skip zero) : 8BA7FB83
AccurateRip v1 signature : 9A11B37A
AccurateRip v2 signature : 04EBDC15
->Accurately ripped (v2, confidence 3/3)
Statistics
Read error : 0
Jitter error (maybe fixed) : 0
Retry sector count : 0
Damaged sector count : 0

Track 07
Filename : /Volumes/320 GB -/TORRENT HOSTS/Billy Talent – 10th Anniversary Edition/Disc 2 (Rarities)/02 – 07 – River Below (Live).flac

Track gain : -9.56 dB
Peak : 1.000000
CRC32 hash (test run) : 7868C9F4
CRC32 hash : 7868C9F4
CRC32 hash (skip zero) : EC82FAD5
AccurateRip v1 signature : 3C292451
AccurateRip v2 signature : 2BF1F331
->Accurately ripped (v2, confidence 3/3)
Statistics
Read error : 0
Jitter error (maybe fixed) : 0
Retry sector count : 0
Damaged sector count : 0

Track 08
Filename : /Volumes/320 GB -/TORRENT HOSTS/Billy Talent – 10th Anniversary Edition/Disc 2 (Rarities)/02 – 08 – Standing in the Rain (Live).flac

Track gain : -9.44 dB
Peak : 0.999969
CRC32 hash (test run) : 5F70B690
CRC32 hash : 5F70B690
CRC32 hash (skip zero) : F8F46F9B
AccurateRip v1 signature : 16E369B6
AccurateRip v2 signature : 4EEFACD4
->Accurately ripped (v2, confidence 3/3)
Statistics
Read error : 0
Jitter error (maybe fixed) : 0
Retry sector count : 0
Damaged sector count : 0

Track 09
Filename : /Volumes/320 GB -/TORRENT HOSTS/Billy Talent – 10th Anniversary Edition/Disc 2 (Rarities)/02 – 09 – Cut the Curtains (Demo Version).flac

Track gain : -10.40 dB
Peak : 0.999969
CRC32 hash (test run) : 515069C6
CRC32 hash : 515069C6
CRC32 hash (skip zero) : 7EE03140
AccurateRip v1 signature : 1A6F8F12
AccurateRip v2 signature : 7D010452
->Accurately ripped (v2, confidence 3/3)
Statistics
Read error : 0
Jitter error (maybe fixed) : 0
Retry sector count : 0
Damaged sector count : 0

Track 10
Filename : /Volumes/320 GB -/TORRENT HOSTS/Billy Talent – 10th Anniversary Edition/Disc 2 (Rarities)/02 – 10 – Prisoners of Today (Demo Version).flac

Track gain : -10.71 dB
Peak : 1.000000
CRC32 hash (test run) : F703E016
CRC32 hash : F703E016
CRC32 hash (skip zero) : 43562402
AccurateRip v1 signature : 33399BA4
AccurateRip v2 signature : E090CE8C
->Accurately ripped (v2, confidence 3/3)
Statistics
Read error : 0
Jitter error (maybe fixed) : 0
Retry sector count : 0
Damaged sector count : 0

Track 11
Filename : /Volumes/320 GB -/TORRENT HOSTS/Billy Talent – 10th Anniversary Edition/Disc 2 (Rarities)/02 – 11 – Nothing to Lose (Live).flac

Track gain : -9.51 dB
Peak : 1.000000
CRC32 hash (test run) : 42F9073B
CRC32 hash : 42F9073B
CRC32 hash (skip zero) : B8F11DA0
AccurateRip v1 signature : 5C1FDE5F
AccurateRip v2 signature : 51347CB4
->Accurately ripped (v2, confidence 3/3)
Statistics
Read error : 0
Jitter error (maybe fixed) : 0
Retry sector count : 0
Damaged sector count : 0

Track 12
Filename : /Volumes/320 GB -/TORRENT HOSTS/Billy Talent – 10th Anniversary Edition/Disc 2 (Rarities)/02 – 12 – Voices of Violence (Live).flac

Track gain : -9.11 dB
Peak : 1.000000
CRC32 hash (test run) : DE1FD5EA
CRC32 hash : DE1FD5EA
CRC32 hash (skip zero) : 1C37855F
AccurateRip v1 signature : 050A9AAA
AccurateRip v2 signature : C25B4E17
->Accurately ripped (v2, confidence 3/3)
Statistics
Read error : 0
Jitter error (maybe fixed) : 0
Retry sector count : 0
Damaged sector count : 0

No errors occurred

End of status report

—–BEGIN XLD SIGNATURE—–
PCpp1io6ob4JxEantI0pRufFjlZ1pPDRPsqp8Lu0.NFsqtvdc92xRDjSNJTMJXFxaMezqVTqCmQAjifT.mowfAXYvP._W1.R4YtUEMi
—–END XLD SIGNATURE—–

X Lossless Decoder version 20130720 (144.0)

XLD extraction logfile from 2014-03-16 16:31:24 -0400

Billy Talent / Billy Talent [10th Anniversary Edition]

Used drive : TSSTcorp CDDVDW SH-S222A (revision SB02)
Media type : Pressed CD

Ripper mode : XLD Secure Ripper
Disable audio cache : OK for the drive with a cache less than 1375KiB
Make use of C2 pointers : NO
Read offset correction : 6
Max retry count : 20
Gap status : Analyzed, Appended (except HTOA)

TOC of the extracted CD
Track | Start | Length | Start sector | End sector
———————————————————
1 | 00:00:00 | 03:27:10 | 0 | 15534
2 | 03:27:10 | 03:15:42 | 15535 | 30201
3 | 06:42:52 | 04:13:53 | 30202 | 49229
4 | 10:56:30 | 03:36:45 | 49230 | 65474
5 | 14:33:00 | 02:59:07 | 65475 | 78906
6 | 17:32:07 | 02:40:30 | 78907 | 90936
7 | 20:12:37 | 03:00:00 | 90937 | 104436
8 | 23:12:37 | 03:20:40 | 104437 | 119476
9 | 26:33:02 | 03:50:35 | 119477 | 136761
10 | 30:23:37 | 03:53:03 | 136762 | 154239
11 | 34:16:40 | 03:38:20 | 154240 | 170609
12 | 37:54:60 | 03:10:27 | 170610 | 184886
13 | 43:37:12 | 11:42:15 | 196287 | 248951

AccurateRip Summary (DiscID: 00134c7c-00b7547e-b50cf70d)
Track 01 : OK (v1+v2, confidence 68/68)
Track 02 : OK (v1+v2, confidence 67/67)
Track 03 : OK (v1+v2, confidence 67/67)
Track 04 : OK (v1+v2, confidence 67/67)
Track 05 : OK (v1+v2, confidence 68/68)
Track 06 : OK (v1+v2, confidence 68/68)
Track 07 : OK (v1+v2, confidence 68/68)
Track 08 : OK (v1+v2, confidence 68/68)
Track 09 : OK (v1+v2, confidence 65/65)
Track 10 : OK (v1+v2, confidence 66/66)
Track 11 : OK (v1+v2, confidence 67/67)
Track 12 : OK (v1+v2, confidence 65/65)
->All tracks accurately ripped.

All Tracks
Album gain : -11.35 dB
Peak : 0.988617
Statistics
Read error : 0
Jitter error (maybe fixed) : 0
Retry sector count : 0
Damaged sector count : 0

Track 01
Filename : /Volumes/320 GB -/TORRENT HOSTS/Billy Talent – 10th Anniversary Edition/Disc 1 (Original Album)/01 – 01 – This is How it Goes.flac
Pre-gap length : 00:02:00

Track gain : -11.16 dB
Peak : 0.988586
CRC32 hash (test run) : E9506C2C
CRC32 hash : E9506C2C
CRC32 hash (skip zero) : D12E04E5
AccurateRip v1 signature : 7FF5814C
AccurateRip v2 signature : 3D62C379
->Accurately ripped (v1+v2, confidence 47+21/68)
Statistics
Read error : 0
Jitter error (maybe fixed) : 0
Retry sector count : 0
Damaged sector count : 0

Track 02
Filename : /Volumes/320 GB -/TORRENT HOSTS/Billy Talent – 10th Anniversary Edition/Disc 1 (Original Album)/01 – 02 – Living in the Shadows.flac

Track gain : -11.33 dB
Peak : 0.988617
CRC32 hash (test run) : E6F4813B
CRC32 hash : E6F4813B
CRC32 hash (skip zero) : AFD8DDC1
AccurateRip v1 signature : 72E1FE12
AccurateRip v2 signature : 75E7BC00
->Accurately ripped (v1+v2, confidence 47+20/67)
Statistics
Read error : 0
Jitter error (maybe fixed) : 0
Retry sector count : 0
Damaged sector count : 0

Track 03
Filename : /Volumes/320 GB -/TORRENT HOSTS/Billy Talent – 10th Anniversary Edition/Disc 1 (Original Album)/01 – 03 – Try Honesty.flac

Track gain : -10.73 dB
Peak : 0.988617
CRC32 hash (test run) : 5E9531E3
CRC32 hash : 5E9531E3
CRC32 hash (skip zero) : 5B707539
AccurateRip v1 signature : 64301BC3
AccurateRip v2 signature : 246CDCCC
->Accurately ripped (v1+v2, confidence 46+21/67)
Statistics
Read error : 0
Jitter error (maybe fixed) : 0
Retry sector count : 0
Damaged sector count : 0

Track 04
Filename : /Volumes/320 GB -/TORRENT HOSTS/Billy Talent – 10th Anniversary Edition/Disc 1 (Original Album)/01 – 04 – Line & Sinker.flac

Track gain : -10.75 dB
Peak : 0.988617
CRC32 hash (test run) : ABD96DA8
CRC32 hash : ABD96DA8
CRC32 hash (skip zero) : 5DFCBD72
AccurateRip v1 signature : 063B364A
AccurateRip v2 signature : 01D2833B
->Accurately ripped (v1+v2, confidence 46+21/67)
Statistics
Read error : 0
Jitter error (maybe fixed) : 0
Retry sector count : 0
Damaged sector count : 0

Track 05
Filename : /Volumes/320 GB -/TORRENT HOSTS/Billy Talent – 10th Anniversary Edition/Disc 1 (Original Album)/01 – 05 – Lies.flac

Track gain : -11.04 dB
Peak : 0.988617
CRC32 hash (test run) : E4EDB1A7
CRC32 hash : E4EDB1A7
CRC32 hash (skip zero) : 6F7CB452
AccurateRip v1 signature : F85AE3AD
AccurateRip v2 signature : 05114D7E
->Accurately ripped (v1+v2, confidence 47+21/68)
Statistics
Read error : 0
Jitter error (maybe fixed) : 0
Retry sector count : 0
Damaged sector count : 0

Track 06
Filename : /Volumes/320 GB -/TORRENT HOSTS/Billy Talent – 10th Anniversary Edition/Disc 1 (Original Album)/01 – 06 – The Ex.flac

Track gain : -11.87 dB
Peak : 0.988586
CRC32 hash (test run) : 118079F7
CRC32 hash : 118079F7
CRC32 hash (skip zero) : 65F33B98
AccurateRip v1 signature : 7FC06F8C
AccurateRip v2 signature : E8FF2BFB
->Accurately ripped (v1+v2, confidence 47+21/68)
Statistics
Read error : 0
Jitter error (maybe fixed) : 0
Retry sector count : 0
Damaged sector count : 0

Track 07
Filename : /Volumes/320 GB -/TORRENT HOSTS/Billy Talent – 10th Anniversary Edition/Disc 1 (Original Album)/01 – 07 – River Below.flac

Track gain : -11.34 dB
Peak : 0.988617
CRC32 hash (test run) : E2511335
CRC32 hash : E2511335
CRC32 hash (skip zero) : DDF3DE9C
AccurateRip v1 signature : D6F38896
AccurateRip v2 signature : 802C3FFF
->Accurately ripped (v1+v2, confidence 47+21/68)
Statistics
Read error : 0
Jitter error (maybe fixed) : 0
Retry sector count : 0
Damaged sector count : 0

Track 08
Filename : /Volumes/320 GB -/TORRENT HOSTS/Billy Talent – 10th Anniversary Edition/Disc 1 (Original Album)/01 – 08 – Standing in the Rain.flac

Track gain : -11.55 dB
Peak : 0.988617
CRC32 hash (test run) : 4C9070D4
CRC32 hash : 4C9070D4
CRC32 hash (skip zero) : C5796A1C
AccurateRip v1 signature : 329BA0EA
AccurateRip v2 signature : 736473DA
->Accurately ripped (v1+v2, confidence 47+21/68)
Statistics
Read error : 0
Jitter error (maybe fixed) : 0
Retry sector count : 0
Damaged sector count : 0

Track 09
Filename : /Volumes/320 GB -/TORRENT HOSTS/Billy Talent – 10th Anniversary Edition/Disc 1 (Original Album)/01 – 09 – Cut the Curtains.flac

Track gain : -11.92 dB
Peak : 0.988586
CRC32 hash (test run) : E58B3B6C
CRC32 hash : E58B3B6C
CRC32 hash (skip zero) : 39F5166B
AccurateRip v1 signature : 97DEF43C
AccurateRip v2 signature : 8C27ED43
->Accurately ripped (v1+v2, confidence 46+19/65)
Statistics
Read error : 0
Jitter error (maybe fixed) : 0
Retry sector count : 0
Damaged sector count : 0

Track 10
Filename : /Volumes/320 GB -/TORRENT HOSTS/Billy Talent – 10th Anniversary Edition/Disc 1 (Original Album)/01 – 10 – Prisoners of Today.flac

Track gain : -11.00 dB
Peak : 0.988617
CRC32 hash (test run) : 23DC9037
CRC32 hash : 23DC9037
CRC32 hash (skip zero) : 3A2704FC
AccurateRip v1 signature : DDDE3A0C
AccurateRip v2 signature : 691B8A82
->Accurately ripped (v1+v2, confidence 47+19/66)
Statistics
Read error : 0
Jitter error (maybe fixed) : 0
Retry sector count : 0
Damaged sector count : 0

Track 11
Filename : /Volumes/320 GB -/TORRENT HOSTS/Billy Talent – 10th Anniversary Edition/Disc 1 (Original Album)/01 – 11 – Nothing to Lose.flac

Track gain : -11.46 dB
Peak : 0.988617
CRC32 hash (test run) : 9F3C0876
CRC32 hash : 9F3C0876
CRC32 hash (skip zero) : FF2C9215
AccurateRip v1 signature : 79ED2CC4
AccurateRip v2 signature : A90CF32E
->Accurately ripped (v1+v2, confidence 47+20/67)
Statistics
Read error : 0
Jitter error (maybe fixed) : 0
Retry sector count : 0
Damaged sector count : 0

Track 12
Filename : /Volumes/320 GB -/TORRENT HOSTS/Billy Talent – 10th Anniversary Edition/Disc 1 (Original Album)/01 – 12 – Voices of Violence.flac

Track gain : -10.89 dB
Peak : 0.988617
CRC32 hash (test run) : 2BC9C1FC
CRC32 hash : 2BC9C1FC
CRC32 hash (skip zero) : ED60393B
AccurateRip v1 signature : 9EBBB4C6
AccurateRip v2 signature : 6531E2CE
->Accurately ripped (v1+v2, confidence 46+19/65)
Statistics
Read error : 0
Jitter error (maybe fixed) : 0
Retry sector count : 0
Damaged sector count : 0

No errors occurred

End of status report

—–BEGIN XLD SIGNATURE—–
iu9MQ_k6Iz4MzkNMmJRUVgCNrsFtUWYQFKmRvSIsNe7o4xtWqQsYWXBvj1CckYFlBMGJw5u0viUzwRKR7RvjBgpo0Y3tEQGIPx8hh7O
—–END XLD SIGNATURE—–

TITLE “Billy Talent [10th Anniversary Edition]”
PERFORMER “Billy Talent”
CATALOG 0075678361425
REM GENRE “Punk”
REM DATE “2013”
REM DISCNUMBER 1
REM TOTALDISCS 2
REM DISCID B50CF70D
REM REPLAYGAIN_ALBUM_GAIN -11.35 dB
REM REPLAYGAIN_ALBUM_PEAK 0.988617
FILE “01 – 01 – This is How it Goes.flac” WAVE
TRACK 01 AUDIO
TITLE “This is How it Goes”
PERFORMER “Billy Talent”
SONGWRITER “Ian D’Sa, Jonathan Gallant, Benjamin Kowalewicz, Aaron Solowoniuk”
ISRC USAT20301650
REM REPLAYGAIN_TRACK_GAIN -11.16 dB
REM REPLAYGAIN_TRACK_PEAK 0.988586
INDEX 01 00:00:00
FILE “01 – 02 – Living in the Shadows.flac” WAVE
TRACK 02 AUDIO
TITLE “Living in the Shadows”
PERFORMER “Billy Talent”
SONGWRITER “Ian D’Sa, Jonathan Gallant, Benjamin Kowalewicz, Aaron Solowoniuk”
ISRC USAT20301583
REM REPLAYGAIN_TRACK_GAIN -11.33 dB
REM REPLAYGAIN_TRACK_PEAK 0.988617
INDEX 01 00:00:00
FILE “01 – 03 – Try Honesty.flac” WAVE
TRACK 03 AUDIO
TITLE “Try Honesty”
PERFORMER “Billy Talent”
SONGWRITER “Ian D’Sa, Jonathan Gallant, Benjamin Kowalewicz, Aaron Solowoniuk”
ISRC USAT20301013
REM REPLAYGAIN_TRACK_GAIN -10.73 dB
REM REPLAYGAIN_TRACK_PEAK 0.988617
INDEX 01 00:00:00
FILE “01 – 04 – Line & Sinker.flac” WAVE
TRACK 04 AUDIO
TITLE “Line & Sinker”
PERFORMER “Billy Talent”
SONGWRITER “Ian D’Sa, Jonathan Gallant, Benjamin Kowalewicz, Aaron Solowoniuk”
ISRC USAT20301658
REM REPLAYGAIN_TRACK_GAIN -10.75 dB
REM REPLAYGAIN_TRACK_PEAK 0.988617
INDEX 01 00:00:00
FILE “01 – 05 – Lies.flac” WAVE
TRACK 05 AUDIO
TITLE “Lies”
PERFORMER “Billy Talent”
SONGWRITER “Ian D’Sa, Jonathan Gallant, Benjamin Kowalewicz, Aaron Solowoniuk”
ISRC USAT20301657
REM REPLAYGAIN_TRACK_GAIN -11.04 dB
REM REPLAYGAIN_TRACK_PEAK 0.988617
INDEX 01 00:00:00
FILE “01 – 06 – The Ex.flac” WAVE
TRACK 06 AUDIO
TITLE “The Ex”
PERFORMER “Billy Talent”
SONGWRITER “Ian D’Sa, Jonathan Gallant, Benjamin Kowalewicz, Aaron Solowoniuk”
ISRC USAT20301656
REM REPLAYGAIN_TRACK_GAIN -11.87 dB
REM REPLAYGAIN_TRACK_PEAK 0.988586
INDEX 01 00:00:00
FILE “01 – 07 – River Below.flac” WAVE
TRACK 07 AUDIO
TITLE “River Below”
PERFORMER “Billy Talent”
SONGWRITER “Ian D’Sa, Jonathan Gallant, Benjamin Kowalewicz, Aaron Solowoniuk”
ISRC USAT20301655
REM REPLAYGAIN_TRACK_GAIN -11.34 dB
REM REPLAYGAIN_TRACK_PEAK 0.988617
INDEX 01 00:00:00
FILE “01 – 08 – Standing in the Rain.flac” WAVE
TRACK 08 AUDIO
TITLE “Standing in the Rain”
PERFORMER “Billy Talent”
SONGWRITER “Ian D’Sa, Jonathan Gallant, Benjamin Kowalewicz, Aaron Solowoniuk”
ISRC USAT20301654
REM REPLAYGAIN_TRACK_GAIN -11.55 dB
REM REPLAYGAIN_TRACK_PEAK 0.988617
INDEX 01 00:00:00
FILE “01 – 09 – Cut the Curtains.flac” WAVE
TRACK 09 AUDIO
TITLE “Cut the Curtains”
PERFORMER “Billy Talent”
SONGWRITER “Ian D’Sa, Jonathan Gallant, Benjamin Kowalewicz, Aaron Solowoniuk”
ISRC USAT20301653
REM REPLAYGAIN_TRACK_GAIN -11.92 dB
REM REPLAYGAIN_TRACK_PEAK 0.988586
INDEX 01 00:00:00
FILE “01 – 10 – Prisoners of Today.flac” WAVE
TRACK 10 AUDIO
TITLE “Prisoners of Today”
PERFORMER “Billy Talent”
SONGWRITER “Ian D’Sa, Jonathan Gallant, Benjamin Kowalewicz, Aaron Solowoniuk”
ISRC USAT20301584
REM REPLAYGAIN_TRACK_GAIN -11.00 dB
REM REPLAYGAIN_TRACK_PEAK 0.988617
INDEX 01 00:00:00
FILE “01 – 11 – Nothing to Lose.flac” WAVE
TRACK 11 AUDIO
TITLE “Nothing to Lose”
PERFORMER “Billy Talent”
SONGWRITER “Ian D’Sa, Jonathan Gallant, Benjamin Kowalewicz, Aaron Solowoniuk”
ISRC USAT20301652
REM REPLAYGAIN_TRACK_GAIN -11.46 dB
REM REPLAYGAIN_TRACK_PEAK 0.988617
INDEX 01 00:00:00
FILE “01 – 12 – Voices of Violence.flac” WAVE
TRACK 12 AUDIO
TITLE “Voices of Violence”
PERFORMER “Billy Talent”
SONGWRITER “Ian D’Sa, Jonathan Gallant, Benjamin Kowalewicz, Aaron Solowoniuk”
ISRC USAT20301585
REM REPLAYGAIN_TRACK_GAIN -10.89 dB
REM REPLAYGAIN_TRACK_PEAK 0.988617
INDEX 01 00:00:00

TITLE “Billy Talent [10th Anniversary Edition]”
PERFORMER “Billy Talent”
REM GENRE “Punk”
REM DATE “2013”
REM DISCNUMBER 2
REM TOTALDISCS 2
REM DISCID 9409EC0C
REM REPLAYGAIN_ALBUM_GAIN -10.19 dB
REM REPLAYGAIN_ALBUM_PEAK 1.000000
FILE “02 – 01 – This is How it Goes (Demo Version).flac” WAVE
TRACK 01 AUDIO
TITLE “This is How it Goes (Demo Version)”
PERFORMER “Billy Talent”
SONGWRITER “Billy Talent”
ISRC USAT21304092
REM REPLAYGAIN_TRACK_GAIN -10.14 dB
REM REPLAYGAIN_TRACK_PEAK 0.989227
INDEX 01 00:00:00
FILE “02 – 02 – Living in the Shadows (Demo Version).flac” WAVE
TRACK 02 AUDIO
TITLE “Living in the Shadows (Demo Version)”
PERFORMER “Billy Talent”
SONGWRITER “Billy Talent”
ISRC USAT21304093
REM REPLAYGAIN_TRACK_GAIN -10.70 dB
REM REPLAYGAIN_TRACK_PEAK 0.995483
INDEX 01 00:00:00
FILE “02 – 03 – Try Honesty (Demo Version).flac” WAVE
TRACK 03 AUDIO
TITLE “Try Honesty (Demo Version)”
PERFORMER “Billy Talent”
SONGWRITER “Billy Talent”
ISRC USAT21304094
REM REPLAYGAIN_TRACK_GAIN -10.13 dB
REM REPLAYGAIN_TRACK_PEAK 1.000000
INDEX 01 00:00:00
FILE “02 – 04 – Line & Sinker (Live).flac” WAVE
TRACK 04 AUDIO
TITLE “Line & Sinker (Live)”
PERFORMER “Billy Talent”
SONGWRITER “Billy Talent”
ISRC CAW111300549
REM REPLAYGAIN_TRACK_GAIN -9.98 dB
REM REPLAYGAIN_TRACK_PEAK 1.000000
INDEX 01 00:00:00
FILE “02 – 05 – Lies (Live Acoustic).flac” WAVE
TRACK 05 AUDIO
TITLE “Lies (Live Acoustic)”
PERFORMER “Billy Talent”
SONGWRITER “Billy Talent”
ISRC USAT21304095
REM REPLAYGAIN_TRACK_GAIN -9.10 dB
REM REPLAYGAIN_TRACK_PEAK 1.000000
INDEX 01 00:00:00
FILE “02 – 06 – The Ex (Demo Version).flac” WAVE
TRACK 06 AUDIO
TITLE “The Ex (Demo Version)”
PERFORMER “Billy Talent”
SONGWRITER “Billy Talent”
ISRC USAT21304096
REM REPLAYGAIN_TRACK_GAIN -11.16 dB
REM REPLAYGAIN_TRACK_PEAK 0.999969
INDEX 01 00:00:00
FILE “02 – 07 – River Below (Live).flac” WAVE
TRACK 07 AUDIO
TITLE “River Below (Live)”
PERFORMER “Billy Talent”
SONGWRITER “Billy Talent”
ISRC CAW111300550
REM REPLAYGAIN_TRACK_GAIN -9.56 dB
REM REPLAYGAIN_TRACK_PEAK 1.000000
INDEX 01 00:00:00
FILE “02 – 08 – Standing in the Rain (Live).flac” WAVE
TRACK 08 AUDIO
TITLE “Standing in the Rain (Live)”
PERFORMER “Billy Talent”
SONGWRITER “Billy Talent”
ISRC CAW111300551
REM REPLAYGAIN_TRACK_GAIN -9.44 dB
REM REPLAYGAIN_TRACK_PEAK 0.999969
INDEX 01 00:00:00
FILE “02 – 09 – Cut the Curtains (Demo Version).flac” WAVE
TRACK 09 AUDIO
TITLE “Cut the Curtains (Demo Version)”
PERFORMER “Billy Talent”
SONGWRITER “Billy Talent”
ISRC USAT21304097
REM REPLAYGAIN_TRACK_GAIN -10.40 dB
REM REPLAYGAIN_TRACK_PEAK 0.999969
INDEX 01 00:00:00
FILE “02 – 10 – Prisoners of Today (Demo Version).flac” WAVE
TRACK 10 AUDIO
TITLE “Prisoners of Today (Demo Version)”
PERFORMER “Billy Talent”
SONGWRITER “Billy Talent”
ISRC USAT21304098
REM REPLAYGAIN_TRACK_GAIN -10.71 dB
REM REPLAYGAIN_TRACK_PEAK 1.000000
INDEX 01 00:00:00
FILE “02 – 11 – Nothing to Lose (Live).flac” WAVE
TRACK 11 AUDIO
TITLE “Nothing to Lose (Live)”
PERFORMER “Billy Talent”
SONGWRITER “Billy Talent”
ISRC USAT21304099
REM REPLAYGAIN_TRACK_GAIN -9.51 dB
REM REPLAYGAIN_TRACK_PEAK 1.000000
INDEX 01 00:00:00
FILE “02 – 12 – Voices of Violence (Live).flac” WAVE
TRACK 12 AUDIO
TITLE “Voices of Violence (Live)”
PERFORMER “Billy Talent”
SONGWRITER “Billy Talent”
ISRC CAW111300552
REM REPLAYGAIN_TRACK_GAIN -9.11 dB
REM REPLAYGAIN_TRACK_PEAK 1.000000
INDEX 01 00:00:00


Leave a Reply

Your email address will not be published. Required fields are marked *

This site uses Akismet to reduce spam. Learn how your comment data is processed.