Billy Idol – Whiplash Smile




Artist: Billy Idol
Year: 1986
Genre: Rock
Notes: Discogs
Add. Notes:
Cover incl.: Yes
Encoder: FLAC
Bitrate: ~800 kBit/s (44.1 kHz/16 Bit/s)
Log & Cue incl.: Yes
Size: 456,05 MB
Password: “slam” (without ” “)


All Downloads/Hosters are compatible

Download 1
Turbobit.net
Rapidgator.net
KatFile.com
UploadRar.com
Download 2
Turbobit.net
Rapidgator.net
KatFile.com
UploadRar.com
Download 3
Turbobit.net
Rapidgator.net
KatFile.com
UploadRar.com

Tracklist:

1 - Worlds Forgotten Boy - 5:44
2 - To Be A Lover - 3:52
3 - Soul Standing By - 4:37
4 - Sweet Sixteen - 4:17
5 - Man For All Season - 4:39
6 - Don't Need A Gun - 6:17
7 - Beyond Belief - 4:02
8 - Fatal Charm - 3:43
9 - All Summer Single - 4:36
10 - One Night, One Chance - 3:54

EAC-Log, CUE-Sheed & NFO:

Click to open spoiler
Exact Audio Copy V1.0 beta 3 from 29. August 2011

EAC extraction logfile from 20. December 2012, 23:51

Billy Idol / Whiplash Smile

Used drive : Optiarc BD RW BD-5300S Adapter: 3 ID: 0

Read mode : Secure
Utilize accurate stream : Yes
Defeat audio cache : Yes
Make use of C2 pointers : No

Read offset correction : 6
Overread into Lead-In and Lead-Out : No
Fill up missing offset samples with silence : Yes
Delete leading and trailing silent blocks : No
Null samples used in CRC calculations : Yes
Used interface : Installed external ASPI interface

Used output format : User Defined Encoder
Selected bitrate : 1024 kBit/s
Quality : High
Add ID3 tag : No
Command line compressor : C:\Program Files (x86)\Exact Audio Copy\Flac\flac.exe
Additional command line options : -8 -V -T “Date=%year%” -T “Genre=%genre%” -T “COMMENT=ripped by bvstudio®” %source%

TOC of the extracted CD

Track | Start | Length | Start sector | End sector
———————————————————
1 | 0:00.33 | 5:44.02 | 33 | 25834
2 | 5:44.35 | 3:52.30 | 25835 | 43264
3 | 9:36.65 | 4:37.15 | 43265 | 64054
4 | 14:14.05 | 4:17.20 | 64055 | 83349
5 | 18:31.25 | 4:39.03 | 83350 | 104277
6 | 23:10.28 | 6:17.62 | 104278 | 132614
7 | 29:28.15 | 4:02.23 | 132615 | 150787
8 | 33:30.38 | 3:43.62 | 150788 | 167574
9 | 37:14.25 | 4:36.28 | 167575 | 188302
10 | 41:50.53 | 3:54.30 | 188303 | 205882

Range status and errors

Selected range

Filename F:\Billy Idol\1986 – Whiplash Smile\Billy Idol – Whiplash Smile.wav

Peak level 82.2 %
Extraction speed 7.0 X
Range quality 100.0 %
Test CRC 3407DF0D
Copy CRC 3407DF0D
Copy OK

No errors occurred

AccurateRip summary

Track 1 accurately ripped (confidence 4) [3974A5D8] (AR v2)
Track 2 accurately ripped (confidence 4) [2906967C] (AR v2)
Track 3 accurately ripped (confidence 4) [DBA76AA9] (AR v2)
Track 4 accurately ripped (confidence 3) [BF90CAEC] (AR v2)
Track 5 accurately ripped (confidence 4) [2E784C28] (AR v2)
Track 6 accurately ripped (confidence 4) [9B89CCC7] (AR v2)
Track 7 accurately ripped (confidence 4) [44CC05F0] (AR v2)
Track 8 accurately ripped (confidence 4) [39B6D009] (AR v2)
Track 9 accurately ripped (confidence 4) [1F037995] (AR v2)
Track 10 accurately ripped (confidence 4) [D1CBD577] (AR v2)

All tracks accurately ripped

End of status report

==== Log checksum E3D5F59AAF82C3E36C9DBCA5B0212C7B83CFA827500497F6BC8F93ADD1B8E344 ====

REM GENRE Punk
REM DATE 1986
REM DISCID 760AB90A
REM COMMENT “ExactAudioCopy v1.0b3”
PERFORMER “Billy Idol”
TITLE “Whiplash Smile”
FILE “Billy Idol – Whiplash Smile.flac” WAVE
TRACK 01 AUDIO
TITLE “Worlds Forgotten Boy”
PERFORMER “Billy Idol”
INDEX 00 00:00:00
INDEX 01 00:00:33
TRACK 02 AUDIO
TITLE “To Be A Lover”
PERFORMER “Billy Idol”
INDEX 00 05:44:33
INDEX 01 05:44:35
TRACK 03 AUDIO
TITLE “Soul Standing By”
PERFORMER “Billy Idol”
INDEX 00 09:36:63
INDEX 01 09:36:65
TRACK 04 AUDIO
TITLE “Sweet Sixteen”
PERFORMER “Billy Idol”
INDEX 00 14:12:73
INDEX 01 14:14:05
TRACK 05 AUDIO
TITLE “Man For All Seasons”
PERFORMER “Billy Idol”
INDEX 00 18:30:63
INDEX 01 18:31:25
TRACK 06 AUDIO
TITLE “Don’t Need A Gun”
PERFORMER “Billy Idol”
INDEX 00 23:10:25
INDEX 01 23:10:28
TRACK 07 AUDIO
TITLE “Beyond Belief”
PERFORMER “Billy Idol”
INDEX 00 29:28:13
INDEX 01 29:28:15
TRACK 08 AUDIO
TITLE “Fatal Charm”
PERFORMER “Billy Idol”
INDEX 00 33:29:73
INDEX 01 33:30:38
TRACK 09 AUDIO
TITLE “All Summer Single”
PERFORMER “Billy Idol”
INDEX 00 37:14:23
INDEX 01 37:14:25
TRACK 10 AUDIO
TITLE “One Night, One Chance”
PERFORMER “Billy Idol”
INDEX 00 41:50:50
INDEX 01 41:50:53


Leave a Reply

Your email address will not be published. Required fields are marked *

This site uses Akismet to reduce spam. Learn how your comment data is processed.