Billy Idol – Kings And Queens Of The Underground




Artist: Billy Idol
Year: 2014
Genre: Rock
Notes: Discogs
Add. Notes:
Encoder: FLAC
Bitrate: ~1000 kBit/s (44.1 kHz/16 Bit/s)
Size: 773,3 MB
Password: “slam” (without ” “)


http://www.share-online.biz/dl/5R5VFKRP8PTZ
http://www.share-online.biz/dl/PZ4VFKRPJ0
https://rapidgator.net/file/80eb50b3596a0ea18c43468d0ba74764
https://rapidgator.net/file/ccdff052c25e79811354d5702c7ada44
https://uploadbyte.com/hn7kum0wmlaq
https://uploadbyte.com/uv0206fgp3m7
https://hitfile.net/HJzgZGD
https://hitfile.net/u9WxPi7

Tracklist:

1 - Bitter Pill - 3:57
2 - Can't Break Me Down - 3:43
3 - Save Me Now - 4:31
4 - One Breath Away - 4:10
5 - Postcards From The Past - 4:20
6 - Kings & Queens Of The Underground - 4:53
7 - Eyes Wide Shut - 4:30
8 - Ghosts In My Guitar - 4:47
9 - Nothing To Fear - 4:39
10 - Love And Glory - 4:29
11 - Whiskey And Pills - 3:43

EAC-Log, CUE-Sheed & NFO:

Click to open spoiler
Exact Audio Copy V1.3 from 2. September 2016

EAC extraction logfile from 29. October 2016, 23:35

Billy Idol / Kings And Queens Of The Underground

Used drive : PLEXTOR DVDR PX-810SA Adapter: 1 ID: 0

Read mode : Secure
Utilize accurate stream : Yes
Defeat audio cache : Yes
Make use of C2 pointers : No

Read offset correction : 48
Overread into Lead-In and Lead-Out : No
Fill up missing offset samples with silence : Yes
Delete leading and trailing silent blocks : No
Null samples used in CRC calculations : Yes
Used interface : Installed external ASPI interface

Used output format : User Defined Encoder
Selected bitrate : 1024 kBit/s
Quality : High
Add ID3 tag : No
Command line compressor : C:\Program Files (x86)\Exact Audio Copy\Flac\flac.exe
Additional command line options : -8 -V -T “Date=%year%” -T “Genre=%genre%” -T “COMMENT=ripped by bvstudio®” %source%

TOC of the extracted CD

Track | Start | Length | Start sector | End sector
———————————————————
1 | 0:00.00 | 3:57.46 | 0 | 17820
2 | 3:57.46 | 3:43.01 | 17821 | 34546
3 | 7:40.47 | 4:31.68 | 34547 | 54939
4 | 12:12.40 | 4:10.37 | 54940 | 73726
5 | 16:23.02 | 4:20.65 | 73727 | 93291
6 | 20:43.67 | 4:53.71 | 93292 | 115337
7 | 25:37.63 | 4:30.24 | 115338 | 135611
8 | 30:08.12 | 4:47.60 | 135612 | 157196
9 | 34:55.72 | 4:39.45 | 157197 | 178166
10 | 39:35.42 | 4:29.37 | 178167 | 198378
11 | 44:05.04 | 3:43.02 | 198379 | 215105

Range status and errors

Selected range

Filename F:\LOSSLESS UPLOADS\Billy Idol\2014 – Kings & Queens Of The Underground\Billy Idol – Kings And Queens Of The Underground.wav

Peak level 98.8 %
Extraction speed 6.7 X
Range quality 100.0 %
Test CRC E1E4DA58
Copy CRC E1E4DA58
Copy OK

No errors occurred

AccurateRip summary

Track 1 accurately ripped (confidence 79) [1CA23B23] (AR v2)
Track 2 accurately ripped (confidence 79) [38DBFA5D] (AR v2)
Track 3 accurately ripped (confidence 81) [8CE6E0CB] (AR v2)
Track 4 accurately ripped (confidence 81) [4B22F0EB] (AR v2)
Track 5 accurately ripped (confidence 81) [EC7EB3AF] (AR v2)
Track 6 accurately ripped (confidence 80) [C3FA09F0] (AR v2)
Track 7 accurately ripped (confidence 81) [49FF1862] (AR v2)
Track 8 accurately ripped (confidence 80) [25984FE3] (AR v2)
Track 9 accurately ripped (confidence 80) [5D60E319] (AR v2)
Track 10 accurately ripped (confidence 80) [1CC3EEB0] (AR v2)
Track 11 accurately ripped (confidence 79) [59974C37] (AR v2)

All tracks accurately ripped

End of status report

—- CUETools DB Plugin V2.1.6

[CTDB TOCID: bykIHnPhHvQrWbalcKV6yTXZe00-] found
Submit result: bykIHnPhHvQrWbalcKV6yTXZe00- has been confirmed
Track | CTDB Status
1 | (263/265) Accurately ripped
2 | (263/265) Accurately ripped
3 | (262/265) Accurately ripped
4 | (263/265) Accurately ripped
5 | (264/265) Accurately ripped
6 | (264/265) Accurately ripped
7 | (264/265) Accurately ripped
8 | (264/265) Accurately ripped
9 | (264/265) Accurately ripped
10 | (263/265) Accurately ripped
11 | (260/265) Accurately ripped

==== Log checksum 69D940216D924885EAA3FBA7D7762D2E133394344AC01DA0630F7CD16052E682 ====

REM GENRE Rock
REM DATE 2014
REM DISCID A00B340B
REM COMMENT “ExactAudioCopy v1.3”
PERFORMER “Billy Idol”
TITLE “Kings And Queens Of The Underground”
REM COMPOSER “”
FILE “Billy Idol – Kings And Queens Of The Underground.flac” WAVE
TRACK 01 AUDIO
TITLE “Bitter Pill”
PERFORMER “Billy Idol”
REM COMPOSER “”
ISRC QMSZA1400001
INDEX 01 00:00:00
TRACK 02 AUDIO
TITLE “Can’t Break Me Down”
PERFORMER “Billy Idol”
REM COMPOSER “”
ISRC QMSZA1400002
INDEX 00 03:57:43
INDEX 01 03:57:46
TRACK 03 AUDIO
TITLE “Save Me Now ”
PERFORMER “Billy Idol”
REM COMPOSER “”
ISRC QMSZA1400003
INDEX 00 07:40:23
INDEX 01 07:40:47
TRACK 04 AUDIO
TITLE “One Breath Away”
PERFORMER “Billy Idol”
REM COMPOSER “”
ISRC QMSZA1400004
INDEX 01 12:12:40
TRACK 05 AUDIO
TITLE “Postcards From The Past”
PERFORMER “Billy Idol”
REM COMPOSER “”
ISRC QMSZA1400005
INDEX 00 16:22:44
INDEX 01 16:23:02
TRACK 06 AUDIO
TITLE “Kings And Queens Of The Underground”
PERFORMER “Billy Idol”
REM COMPOSER “”
ISRC QMSZA1400006
INDEX 01 20:43:67
TRACK 07 AUDIO
TITLE “Eyes Wide Shut”
PERFORMER “Billy Idol”
REM COMPOSER “”
ISRC QMSZA1400007
INDEX 01 25:37:63
TRACK 08 AUDIO
TITLE “Ghosts In My Guitar”
PERFORMER “Billy Idol”
REM COMPOSER “”
ISRC QMSZA1400008
INDEX 00 30:07:56
INDEX 01 30:08:12
TRACK 09 AUDIO
TITLE “Nothing To Fear”
PERFORMER “Billy Idol”
REM COMPOSER “”
ISRC QMSZA1400009
INDEX 00 34:55:44
INDEX 01 34:55:72
TRACK 10 AUDIO
TITLE “Love And Glory”
PERFORMER “Billy Idol”
REM COMPOSER “”
ISRC QMSZA1400010
INDEX 01 39:35:42
TRACK 11 AUDIO
TITLE “Whiskey And Pills”
PERFORMER “Billy Idol”
REM COMPOSER “”
ISRC QMSZA1400011
INDEX 00 44:04:21
INDEX 01 44:05:04

Leave a Reply

Your email address will not be published. Required fields are marked *

This site uses Akismet to reduce spam. Learn how your comment data is processed.