Billy Idol – Happy Holidays




Artist: Billy Idol
Year: 2006
Genre: Rock
Notes: Discogs
Add. Notes:
Encoder: FLAC
Bitrate: ~800 kBit/s (44.1 kHz/16 Bit/s)
Size: 281,79 MB
Password: “slam” (without ” “)


http://www.share-online.biz/dl/GCXUFKRPOER0
https://rapidgator.net/file/164687bc68e465df0583a3da484115fa
https://uploadbyte.com/79m7bj81q890
https://hitfile.net/qNIX1wX

Tracklist:

1 - Frosty The Snowman - 2:28
2 - Silver Bells - 2:42
3 - Happy Holidays - 2:04
4 - Merry Christmas Baby - 4:08
5 - White Christmas - 2:33
6 - Here Comes Santa Claus - 2:02
7 - God Rest Ye Merry Gentlemen - 2:57
8 - Santa Claus Is Back In Town - 3:21
9 - Let It Snow - 2:28
10 - Winter Wonderland - 2:20
11 - Run Rudolph Run - 3:02
12 - Blue Christmas - 2:27
13 - Jingle Bell Rock - 2:03
14 - Christmas Love - 4:00
15 - O' Christmas Tree - 4:32
16 - Silent Night - 2:18
17 - Auld Lang Syne - 1:21

EAC-Log, CUE-Sheed & NFO:

Click to open spoiler
EAC extraction logfile from 17. June 2009, 22:22 for CD
Billy Idol / Happy Holidays

Used drive : PLEXTOR DVDR PX-850SA Adapter: 2 ID: 1
Read mode : Secure with NO C2, accurate stream, disable cache
Read offset correction : 6
Overread into Lead-In and Lead-Out : No

Used output format : C:\Program Files\Exact Audio Copy\flac.exe (User Defined Encoder)
192 kBit/s
Additional command line options : -8 -A tukey(0.25) -A gauss(0.1875) -b 4096 -V -T “artist=%a” -T “title=%t” -T “album=%g” -T “date=%y” -T “tracknumber=%n” -T “genre=%m” %s –sector-align

Other options :
Fill up missing offset samples with silence : Yes
Delete leading and trailing silent blocks : No
Installed external ASPI interface

Track 1
Filename C:\Documents and Settings\Dan\My Documents\Torrents\Billy Idol\Happy Holidays\Billy Idol – 01 – Frosty The Snowman.wav

Pre-gap length 0:00:02.00

Peak level 96.6 %
Track quality 100.0 %
Test CRC BCE8244F
Copy CRC BCE8244F
Copy OK

Track 2
Filename C:\Documents and Settings\Dan\My Documents\Torrents\Billy Idol\Happy Holidays\Billy Idol – 02 – Silver Bells.wav

Peak level 96.6 %
Track quality 100.0 %
Test CRC 380F3192
Copy CRC 380F3192
Copy OK

Track 3
Filename C:\Documents and Settings\Dan\My Documents\Torrents\Billy Idol\Happy Holidays\Billy Idol – 03 – Happy Holiday.wav

Peak level 95.5 %
Track quality 100.0 %
Test CRC 38F6030A
Copy CRC 38F6030A
Copy OK

Track 4
Filename C:\Documents and Settings\Dan\My Documents\Torrents\Billy Idol\Happy Holidays\Billy Idol – 04 – Merry Christmas Baby.wav

Peak level 98.6 %
Track quality 100.0 %
Test CRC FC1BB4E1
Copy CRC FC1BB4E1
Copy OK

Track 5
Filename C:\Documents and Settings\Dan\My Documents\Torrents\Billy Idol\Happy Holidays\Billy Idol – 05 – White Christmas.wav

Peak level 96.6 %
Track quality 100.0 %
Test CRC 60BE6772
Copy CRC 60BE6772
Copy OK

Track 6
Filename C:\Documents and Settings\Dan\My Documents\Torrents\Billy Idol\Happy Holidays\Billy Idol – 06 – Here Comes Santa Claus.wav

Peak level 96.6 %
Track quality 100.0 %
Test CRC 89879679
Copy CRC 89879679
Copy OK

Track 7
Filename C:\Documents and Settings\Dan\My Documents\Torrents\Billy Idol\Happy Holidays\Billy Idol – 07 – God Rest Ye, Merry Gentlemen.wav

Peak level 96.6 %
Track quality 99.9 %
Test CRC 646F68B5
Copy CRC 646F68B5
Copy OK

Track 8
Filename C:\Documents and Settings\Dan\My Documents\Torrents\Billy Idol\Happy Holidays\Billy Idol – 08 – Santa Claus Is Back In Town.wav

Peak level 96.6 %
Track quality 100.0 %
Test CRC 271D9346
Copy CRC 271D9346
Copy OK

Track 9
Filename C:\Documents and Settings\Dan\My Documents\Torrents\Billy Idol\Happy Holidays\Billy Idol – 09 – Let It Snow.wav

Peak level 96.6 %
Track quality 100.0 %
Test CRC F1E1BB01
Copy CRC F1E1BB01
Copy OK

Track 10
Filename C:\Documents and Settings\Dan\My Documents\Torrents\Billy Idol\Happy Holidays\Billy Idol – 10 – Winter Wonderland.wav

Peak level 96.6 %
Track quality 100.0 %
Test CRC 313216D7
Copy CRC 313216D7
Copy OK

Track 11
Filename C:\Documents and Settings\Dan\My Documents\Torrents\Billy Idol\Happy Holidays\Billy Idol – 11 – Run Rudolph Run.wav

Peak level 96.6 %
Track quality 100.0 %
Test CRC 2FD2BD64
Copy CRC 2FD2BD64
Copy OK

Track 12
Filename C:\Documents and Settings\Dan\My Documents\Torrents\Billy Idol\Happy Holidays\Billy Idol – 12 – Blue Christmas.wav

Peak level 96.6 %
Track quality 100.0 %
Test CRC 04C156A8
Copy CRC 04C156A8
Copy OK

Track 13
Filename C:\Documents and Settings\Dan\My Documents\Torrents\Billy Idol\Happy Holidays\Billy Idol – 13 – Jingle Bell Rock.wav

Pre-gap length 0:00:00.01

Peak level 96.6 %
Track quality 100.0 %
Test CRC 46C26661
Copy CRC 46C26661
Copy OK

Track 14
Filename C:\Documents and Settings\Dan\My Documents\Torrents\Billy Idol\Happy Holidays\Billy Idol – 14 – Christmas Love.wav

Peak level 96.6 %
Track quality 100.0 %
Test CRC C75C2178
Copy CRC C75C2178
Copy OK

Track 15
Filename C:\Documents and Settings\Dan\My Documents\Torrents\Billy Idol\Happy Holidays\Billy Idol – 15 – Oh Christmas Tree.wav

Peak level 96.6 %
Track quality 100.0 %
Test CRC 1AF33D2C
Copy CRC 1AF33D2C
Copy OK

Track 16
Filename C:\Documents and Settings\Dan\My Documents\Torrents\Billy Idol\Happy Holidays\Billy Idol – 16 – Silent Night.wav

Peak level 96.6 %
Track quality 100.0 %
Test CRC 0D45C5B2
Copy CRC 0D45C5B2
Copy OK

Track 17
Filename C:\Documents and Settings\Dan\My Documents\Torrents\Billy Idol\Happy Holidays\Billy Idol – 17 – Auld Lang Syne.wav

Peak level 96.6 %
Track quality 100.0 %
Test CRC 178A208C
Copy CRC 178A208C
Copy OK

No errors occured

End of status report

————————————————————

EAC extraction logfile from 17. June 2009, 22:22 for CD
Billy Idol / Happy Holidays

Used drive : PLEXTOR DVDR PX-850SA Adapter: 2 ID: 1
Read mode : Secure with NO C2, accurate stream, disable cache
Read offset correction : 6
Overread into Lead-In and Lead-Out : No

Used output format : C:\Program Files\Exact Audio Copy\flac.exe (User Defined Encoder)
192 kBit/s
Additional command line options : -8 -A tukey(0.25) -A gauss(0.1875) -b 4096 -V -T “artist=%a” -T “title=%t” -T “album=%g” -T “date=%y” -T “tracknumber=%n” -T “genre=%m” %s –sector-align

Other options :
Fill up missing offset samples with silence : Yes
Delete leading and trailing silent blocks : No
Installed external ASPI interface

Track 1
Filename C:\Documents and Settings\Dan\My Documents\Torrents\Billy Idol\Happy Holidays\Billy Idol – 01 – Frosty The Snowman.wav

Pre-gap length 0:00:02.00

Peak level 96.6 %
Track quality 100.0 %
Test CRC BCE8244F
Copy CRC BCE8244F
Copy OK

Track 2
Filename C:\Documents and Settings\Dan\My Documents\Torrents\Billy Idol\Happy Holidays\Billy Idol – 02 – Silver Bells.wav

Peak level 96.6 %
Track quality 100.0 %
Test CRC 380F3192
Copy CRC 380F3192
Copy OK

Track 3
Filename C:\Documents and Settings\Dan\My Documents\Torrents\Billy Idol\Happy Holidays\Billy Idol – 03 – Happy Holiday.wav

Peak level 95.5 %
Track quality 100.0 %
Test CRC 38F6030A
Copy CRC 38F6030A
Copy OK

Track 4
Filename C:\Documents and Settings\Dan\My Documents\Torrents\Billy Idol\Happy Holidays\Billy Idol – 04 – Merry Christmas Baby.wav

Peak level 98.6 %
Track quality 100.0 %
Test CRC FC1BB4E1
Copy CRC FC1BB4E1
Copy OK

Track 5
Filename C:\Documents and Settings\Dan\My Documents\Torrents\Billy Idol\Happy Holidays\Billy Idol – 05 – White Christmas.wav

Peak level 96.6 %
Track quality 100.0 %
Test CRC 60BE6772
Copy CRC 60BE6772
Copy OK

Track 6
Filename C:\Documents and Settings\Dan\My Documents\Torrents\Billy Idol\Happy Holidays\Billy Idol – 06 – Here Comes Santa Claus.wav

Peak level 96.6 %
Track quality 100.0 %
Test CRC 89879679
Copy CRC 89879679
Copy OK

Track 7
Filename C:\Documents and Settings\Dan\My Documents\Torrents\Billy Idol\Happy Holidays\Billy Idol – 07 – God Rest Ye, Merry Gentlemen.wav

Peak level 96.6 %
Track quality 99.9 %
Test CRC 646F68B5
Copy CRC 646F68B5
Copy OK

Track 8
Filename C:\Documents and Settings\Dan\My Documents\Torrents\Billy Idol\Happy Holidays\Billy Idol – 08 – Santa Claus Is Back In Town.wav

Peak level 96.6 %
Track quality 100.0 %
Test CRC 271D9346
Copy CRC 271D9346
Copy OK

Track 9
Filename C:\Documents and Settings\Dan\My Documents\Torrents\Billy Idol\Happy Holidays\Billy Idol – 09 – Let It Snow.wav

Peak level 96.6 %
Track quality 100.0 %
Test CRC F1E1BB01
Copy CRC F1E1BB01
Copy OK

Track 10
Filename C:\Documents and Settings\Dan\My Documents\Torrents\Billy Idol\Happy Holidays\Billy Idol – 10 – Winter Wonderland.wav

Peak level 96.6 %
Track quality 100.0 %
Test CRC 313216D7
Copy CRC 313216D7
Copy OK

Track 11
Filename C:\Documents and Settings\Dan\My Documents\Torrents\Billy Idol\Happy Holidays\Billy Idol – 11 – Run Rudolph Run.wav

Peak level 96.6 %
Track quality 100.0 %
Test CRC 2FD2BD64
Copy CRC 2FD2BD64
Copy OK

Track 12
Filename C:\Documents and Settings\Dan\My Documents\Torrents\Billy Idol\Happy Holidays\Billy Idol – 12 – Blue Christmas.wav

Peak level 96.6 %
Track quality 100.0 %
Test CRC 04C156A8
Copy CRC 04C156A8
Copy OK

Track 13
Filename C:\Documents and Settings\Dan\My Documents\Torrents\Billy Idol\Happy Holidays\Billy Idol – 13 – Jingle Bell Rock.wav

Pre-gap length 0:00:00.01

Peak level 96.6 %
Track quality 100.0 %
Test CRC 46C26661
Copy CRC 46C26661
Copy OK

Track 14
Filename C:\Documents and Settings\Dan\My Documents\Torrents\Billy Idol\Happy Holidays\Billy Idol – 14 – Christmas Love.wav

Peak level 96.6 %
Track quality 100.0 %
Test CRC C75C2178
Copy CRC C75C2178
Copy OK

Track 15
Filename C:\Documents and Settings\Dan\My Documents\Torrents\Billy Idol\Happy Holidays\Billy Idol – 15 – Oh Christmas Tree.wav

Peak level 96.6 %
Track quality 100.0 %
Test CRC 1AF33D2C
Copy CRC 1AF33D2C
Copy OK

Track 16
Filename C:\Documents and Settings\Dan\My Documents\Torrents\Billy Idol\Happy Holidays\Billy Idol – 16 – Silent Night.wav

Peak level 96.6 %
Track quality 100.0 %
Test CRC 0D45C5B2
Copy CRC 0D45C5B2
Copy OK

Track 17
Filename C:\Documents and Settings\Dan\My Documents\Torrents\Billy Idol\Happy Holidays\Billy Idol – 17 – Auld Lang Syne.wav

Peak level 96.6 %
Track quality 100.0 %
Test CRC 178A208C
Copy CRC 178A208C
Copy OK

No errors occured

End of status report

REM GENRE Rock
REM DATE 2006
REM DISCID F70AF611
REM COMMENT “ExactAudioCopy v0.95b3”
PERFORMER “Billy Idol”
TITLE “Happy Holidays”
FILE “Billy Idol – 01 – Frosty The Snowman.wav” WAVE
TRACK 01 AUDIO
TITLE “Frosty The Snowman”
PERFORMER “Billy Idol”
INDEX 01 00:00:00
FILE “Billy Idol – 02 – Silver Bells.wav” WAVE
TRACK 02 AUDIO
TITLE “Silver Bells”
PERFORMER “Billy Idol”
INDEX 01 00:00:00
FILE “Billy Idol – 03 – Happy Holiday.wav” WAVE
TRACK 03 AUDIO
TITLE “Happy Holiday”
PERFORMER “Billy Idol”
INDEX 01 00:00:00
FILE “Billy Idol – 04 – Merry Christmas Baby.wav” WAVE
TRACK 04 AUDIO
TITLE “Merry Christmas Baby”
PERFORMER “Billy Idol”
INDEX 01 00:00:00
FILE “Billy Idol – 05 – White Christmas.wav” WAVE
TRACK 05 AUDIO
TITLE “White Christmas”
PERFORMER “Billy Idol”
INDEX 01 00:00:00
FILE “Billy Idol – 06 – Here Comes Santa Claus.wav” WAVE
TRACK 06 AUDIO
TITLE “Here Comes Santa Claus”
PERFORMER “Billy Idol”
INDEX 01 00:00:00
FILE “Billy Idol – 07 – God Rest Ye, Merry Gentlemen.wav” WAVE
TRACK 07 AUDIO
TITLE “God Rest Ye, Merry Gentlemen”
PERFORMER “Billy Idol”
INDEX 01 00:00:00
FILE “Billy Idol – 08 – Santa Claus Is Back In Town.wav” WAVE
TRACK 08 AUDIO
TITLE “Santa Claus Is Back In Town”
PERFORMER “Billy Idol”
INDEX 01 00:00:00
FILE “Billy Idol – 09 – Let It Snow.wav” WAVE
TRACK 09 AUDIO
TITLE “Let It Snow”
PERFORMER “Billy Idol”
INDEX 01 00:00:00
FILE “Billy Idol – 10 – Winter Wonderland.wav” WAVE
TRACK 10 AUDIO
TITLE “Winter Wonderland”
PERFORMER “Billy Idol”
INDEX 01 00:00:00
FILE “Billy Idol – 11 – Run Rudolph Run.wav” WAVE
TRACK 11 AUDIO
TITLE “Run Rudolph Run”
PERFORMER “Billy Idol”
INDEX 01 00:00:00
FILE “Billy Idol – 12 – Blue Christmas.wav” WAVE
TRACK 12 AUDIO
TITLE “Blue Christmas”
PERFORMER “Billy Idol”
INDEX 01 00:00:00
TRACK 13 AUDIO
TITLE “Jingle Bell Rock”
PERFORMER “Billy Idol”
INDEX 00 02:26:70
FILE “Billy Idol – 13 – Jingle Bell Rock.wav” WAVE
INDEX 01 00:00:00
FILE “Billy Idol – 14 – Christmas Love.wav” WAVE
TRACK 14 AUDIO
TITLE “Christmas Love”
PERFORMER “Billy Idol”
INDEX 01 00:00:00
FILE “Billy Idol – 15 – Oh Christmas Tree.wav” WAVE
TRACK 15 AUDIO
TITLE “Oh Christmas Tree”
PERFORMER “Billy Idol”
INDEX 01 00:00:00
FILE “Billy Idol – 16 – Silent Night.wav” WAVE
TRACK 16 AUDIO
TITLE “Silent Night”
PERFORMER “Billy Idol”
INDEX 01 00:00:00
FILE “Billy Idol – 17 – Auld Lang Syne.wav” WAVE
TRACK 17 AUDIO
TITLE “Auld Lang Syne”
PERFORMER “Billy Idol”
INDEX 01 00:00:00

Leave a Reply

Your email address will not be published. Required fields are marked *

This site uses Akismet to reduce spam. Learn how your comment data is processed.