Billy Idol – Greatest Hits (Remastered)




Artist: Billy Idol
Year: 2001
Genre: Rock
Notes: Discogs
Add. Notes: Remastered
Encoder: FLAC
Bitrate: ~900 kBit/s (44.1 kHz/16 Bit/s)
Size: 839,17 MB
Password: “slam” (without ” “)


http://www.share-online.biz/dl/EWYTFKRPTJX
http://www.share-online.biz/dl/UKMTFKRP5XB
https://rapidgator.net/file/2a88d1473bbceb392a369e428e3dd3c0
https://rapidgator.net/file/70b8c8c78c69a0abe0471ea570c2f3a4
https://uploadbyte.com/gsli48ou0ip4
https://uploadbyte.com/zoxwo38hf85v
https://hitfile.net/Guig1fJ
https://hitfile.net/Om8zz72

Tracklist:

1 - Dancing With Myself - 4:50
2 - Mony Mony - 5:01
3 - Hot In The City - 3:33
4 - White Wedding (Part 1) - 4:12
5 - Rebel Yell - 4:46
6 - Eyes Without A Face - 4:57
7 - Flesh For Fantasy - 4:37
8 - Catch My Fall - 3:41
9 - To Be A Lover - 3:52
10 - Don't Need A Gun (Single Edit) - 5:23
11 - Sweet Sixteen - 4:14
12 - Cradle Of Love - 4:38
13 - L.A. Woman (Single Edit) - 4:03
14 - Shock To The System - 3:36
15 - Rebel Yell (Live And Acoustic) - 5:35
16 - Don't You (Forget About Me) - 4:52

EAC-Log, CUE-Sheed & NFO:

Click to open spoiler
Exact Audio Copy V1.0 beta 3 from 29. August 2011

EAC extraction logfile from 21. December 2012, 1:46

Billy Idol / Greatest Hits

Used drive : Optiarc BD RW BD-5300S Adapter: 3 ID: 0

Read mode : Secure
Utilize accurate stream : Yes
Defeat audio cache : Yes
Make use of C2 pointers : No

Read offset correction : 6
Overread into Lead-In and Lead-Out : No
Fill up missing offset samples with silence : Yes
Delete leading and trailing silent blocks : No
Null samples used in CRC calculations : Yes
Used interface : Installed external ASPI interface

Used output format : User Defined Encoder
Selected bitrate : 1024 kBit/s
Quality : High
Add ID3 tag : No
Command line compressor : C:\Program Files (x86)\Exact Audio Copy\Flac\flac.exe
Additional command line options : -8 -V -T “Date=%year%” -T “Genre=%genre%” -T “COMMENT=ripped by bvstudio®” %source%

TOC of the extracted CD

Track | Start | Length | Start sector | End sector
———————————————————
1 | 0:00.00 | 4:50.32 | 0 | 21781
2 | 4:50.32 | 5:01.30 | 21782 | 44386
3 | 9:51.62 | 3:33.15 | 44387 | 60376
4 | 13:25.02 | 4:12.30 | 60377 | 79306
5 | 17:37.32 | 4:46.63 | 79307 | 100819
6 | 22:24.20 | 4:57.32 | 100820 | 123126
7 | 27:21.52 | 4:37.40 | 123127 | 143941
8 | 31:59.17 | 3:41.23 | 143942 | 160539
9 | 35:40.40 | 3:52.30 | 160540 | 177969
10 | 39:32.70 | 5:23.70 | 177970 | 202264
11 | 44:56.65 | 4:14.55 | 202265 | 221369
12 | 49:11.45 | 4:38.52 | 221370 | 242271
13 | 53:50.22 | 4:03.40 | 242272 | 260536
14 | 57:53.62 | 3:36.60 | 260537 | 276796
15 | 61:30.47 | 5:35.25 | 276797 | 301946
16 | 67:05.72 | 4:52.18 | 301947 | 323864

Range status and errors

Selected range

Filename F:\Billy Idol\2001 – Greatest Hits\Billy Idol – Greatest Hits.wav

Peak level 100.0 %
Extraction speed 8.1 X
Range quality 100.0 %
Test CRC E6ED1582
Copy CRC E6ED1582
Copy OK

No errors occurred

AccurateRip summary

Track 1 accurately ripped (confidence 33) [40D0D84A] (AR v2)
Track 2 accurately ripped (confidence 33) [6741D164] (AR v2)
Track 3 accurately ripped (confidence 33) [7FDBB65C] (AR v2)
Track 4 accurately ripped (confidence 33) [154B65CA] (AR v2)
Track 5 accurately ripped (confidence 33) [547D47A9] (AR v2)
Track 6 accurately ripped (confidence 32) [C175AE6A] (AR v2)
Track 7 accurately ripped (confidence 33) [62395C62] (AR v2)
Track 8 accurately ripped (confidence 32) [4356DFB0] (AR v2)
Track 9 accurately ripped (confidence 33) [09542A91] (AR v2)
Track 10 accurately ripped (confidence 32) [357F692D] (AR v2)
Track 11 accurately ripped (confidence 33) [044210E2] (AR v2)
Track 12 accurately ripped (confidence 33) [CEF1151D] (AR v2)
Track 13 accurately ripped (confidence 33) [55371A8F] (AR v2)
Track 14 accurately ripped (confidence 33) [9139485B] (AR v2)
Track 15 accurately ripped (confidence 33) [1B8475F1] (AR v2)
Track 16 accurately ripped (confidence 34) [A5D5FBBD] (AR v2)

All tracks accurately ripped

End of status report

==== Log checksum 9BC7D46BC2A2F3D4F9FA6F4A85504DF03A7F26CED115D0D7408A434A0C8051DF ====

REM GENRE Rock
REM DATE 2001
REM DISCID EA10DE10
REM COMMENT “ExactAudioCopy v1.0b3”
CATALOG 0724352881222
PERFORMER “Billy Idol”
TITLE “Greatest Hits”
FILE “Billy Idol – Greatest Hits.flac” WAVE
TRACK 01 AUDIO
TITLE “Dancing With Myself”
PERFORMER “Billy Idol”
ISRC GBAYK0100065
INDEX 01 00:00:00
TRACK 02 AUDIO
TITLE “Mony Mony”
PERFORMER “Billy Idol”
ISRC USCH30100012
INDEX 01 04:50:32
TRACK 03 AUDIO
TITLE “Hot In The City”
PERFORMER “Billy Idol”
ISRC USCH30100007
INDEX 01 09:51:62
TRACK 04 AUDIO
TITLE “White Wedding (Part 1)”
PERFORMER “Billy Idol”
ISRC USCH30100008
INDEX 00 13:23:70
INDEX 01 13:25:02
TRACK 05 AUDIO
TITLE “Rebell Yell”
PERFORMER “Billy Idol”
ISRC USCH39900054
INDEX 01 17:37:32
TRACK 06 AUDIO
TITLE “Eyes Without A Face”
PERFORMER “Billy Idol”
ISRC USCH39900056
INDEX 00 22:22:70
INDEX 01 22:24:20
TRACK 07 AUDIO
TITLE “Flesh For Fantasy”
PERFORMER “Billy Idol”
ISRC USCH39900058
INDEX 01 27:21:52
TRACK 08 AUDIO
TITLE “Catch My Fall”
PERFORMER “Billy Idol”
ISRC USCH39900059
INDEX 01 31:59:17
TRACK 09 AUDIO
TITLE “To Be A Lover”
PERFORMER “Billy Idol”
ISRC USCH30100009
INDEX 01 35:40:40
TRACK 10 AUDIO
TITLE “Don’t Need A Gun (Single Edit)”
PERFORMER “Billy Idol”
ISRC USCH30100010
INDEX 00 39:31:55
INDEX 01 39:32:70
TRACK 11 AUDIO
TITLE “Sweet Sixteen”
PERFORMER “Billy Idol”
ISRC USCH30100011
INDEX 00 44:55:15
INDEX 01 44:56:65
TRACK 12 AUDIO
TITLE “Cradle Of Love”
PERFORMER “Billy Idol”
ISRC USCH30100013
INDEX 01 49:11:45
TRACK 13 AUDIO
TITLE “L.A. Woman (Single Edit)”
PERFORMER “Billy Idol”
ISRC USCH30100014
INDEX 00 53:49:15
INDEX 01 53:50:22
TRACK 14 AUDIO
TITLE “Shock To The System”
PERFORMER “Billy Idol”
ISRC USCH30100015
INDEX 00 57:52:40
INDEX 01 57:53:62
TRACK 15 AUDIO
TITLE “Rebel Yell (Live And Acoustic)”
PERFORMER “Billy Idol”
ISRC USCH30100016
INDEX 00 61:29:30
INDEX 01 61:30:47
TRACK 16 AUDIO
TITLE “Don’t You (Forget About Me)”
PERFORMER “Billy Idol”
ISRC USCH30100017
INDEX 01 67:05:72

Leave a Reply

Your email address will not be published. Required fields are marked *

This site uses Akismet to reduce spam. Learn how your comment data is processed.