Billy Idol – Devil’s Playground




Artist: Billy Idol
Year: 2005
Genre: Rock
Notes: Discogs
Add. Notes:
Cover incl.: Yes
Encoder: FLAC
Bitrate: ~1000 kBit/s (44.1 kHz/16 Bit/s)
Log & Cue incl.: Yes
Size: 749,11 MB
Password: “slam” (without ” “)


All Downloads/Hosters are compatible

Download 1
Turbobit.net
Rapidgator.net
KatFile.com
UploadRar.com
Download 2
Turbobit.net
Rapidgator.net
KatFile.com
UploadRar.com
Download 3
Turbobit.net
Rapidgator.net
KatFile.com
UploadRar.com

Tracklist:

1 - Super Overdrive - 4:18
2 - World Comin' Down - 3:33
3 - Rat Race - 4:17
4 - Sherri - 3:17
5 - Plastic Jesus - 4:53
6 - Scream - 4:43
7 - Yellin' At The Xmas Tree - 4:14
8 - Romeo's Waiting - 3:43
9 - Body Snatcher - 3:57
10 - Evil Eye - 4:32
11 - Lady Do Or Die - 4:37
12 - Cherie - 3:47
13 - Summer Running - 4:30

EAC-Log, CUE-Sheed & NFO:

Click to open spoiler
Exact Audio Copy V1.0 beta 3 from 29. August 2011

EAC extraction logfile from 21. December 2012, 2:46

Billy Idol / Devil’s Playground

Used drive : Optiarc BD RW BD-5300S Adapter: 3 ID: 0

Read mode : Secure
Utilize accurate stream : Yes
Defeat audio cache : Yes
Make use of C2 pointers : No

Read offset correction : 6
Overread into Lead-In and Lead-Out : No
Fill up missing offset samples with silence : Yes
Delete leading and trailing silent blocks : No
Null samples used in CRC calculations : Yes
Used interface : Installed external ASPI interface

Used output format : User Defined Encoder
Selected bitrate : 1024 kBit/s
Quality : High
Add ID3 tag : No
Command line compressor : C:\Program Files (x86)\Exact Audio Copy\Flac\flac.exe
Additional command line options : -8 -V -T “Date=%year%” -T “Genre=%genre%” -T “COMMENT=ripped by bvstudio┬«” %source%

TOC of the extracted CD

Track | Start | Length | Start sector | End sector
———————————————————
1 | 0:00.00 | 4:18.15 | 0 | 19364
2 | 4:18.15 | 3:33.24 | 19365 | 35363
3 | 7:51.39 | 4:17.41 | 35364 | 54679
4 | 12:09.05 | 3:17.25 | 54680 | 69479
5 | 15:26.30 | 4:53.34 | 69480 | 91488
6 | 20:19.64 | 4:42.71 | 91489 | 112709
7 | 25:02.60 | 4:14.03 | 112710 | 131762
8 | 29:16.63 | 3:42.72 | 131763 | 148484
9 | 32:59.60 | 3:57.06 | 148485 | 166265
10 | 36:56.66 | 4:32.52 | 166266 | 186717
11 | 41:29.43 | 4:37.36 | 186718 | 207528
12 | 46:07.04 | 3:47.31 | 207529 | 224584
13 | 49:54.35 | 4:30.69 | 224585 | 244903

Range status and errors

Selected range

Filename F:\Billy Idol\2005 – Devil’s Playground\Billy Idol – Devil’s Playground.wav

Peak level 98.8 %
Extraction speed 2.0 X
Range quality 100.0 %
Test CRC 5E8AD852
Copy CRC 5E8AD852
Copy OK

No errors occurred

AccurateRip summary

Track 1 accurately ripped (confidence 8) [CE56EFAE] (AR v2)
Track 2 accurately ripped (confidence 8) [EDB811D6] (AR v2)
Track 3 accurately ripped (confidence 8) [5CBF6BEA] (AR v2)
Track 4 accurately ripped (confidence 8) [1E83C738] (AR v2)
Track 5 accurately ripped (confidence 8) [F2927E2F] (AR v2)
Track 6 accurately ripped (confidence 8) [819F6BDA] (AR v2)
Track 7 accurately ripped (confidence 8) [058B7CEE] (AR v2)
Track 8 accurately ripped (confidence 8) [218ECD5F] (AR v2)
Track 9 accurately ripped (confidence 8) [265FB746] (AR v2)
Track 10 accurately ripped (confidence 7) [034F91F7] (AR v2)
Track 11 accurately ripped (confidence 8) [E472BBDF] (AR v2)
Track 12 accurately ripped (confidence 8) [B3D49554] (AR v2)
Track 13 accurately ripped (confidence 8) [2C87874C] (AR v2)

All tracks accurately ripped

End of status report

==== Log checksum 39834F9D1D1E8AFD4703ACE7920BDB12DDE34DFA1C8C185ECAE24C007FC04B92 ====

REM GENRE Rock
REM DATE 2005
REM DISCID BD0CC10D
REM COMMENT “ExactAudioCopy v1.0b3”
CATALOG 0060768473522
PERFORMER “Billy Idol”
TITLE “Devil’s Playground”
FILE “Billy Idol – Devil’s Playground.flac” WAVE
TRACK 01 AUDIO
TITLE “Super Overdrive”
PERFORMER “Billy Idol”
ISRC GBAJE0400076
INDEX 01 00:00:00
TRACK 02 AUDIO
TITLE “World Comin’ Down”
PERFORMER “Billy Idol”
ISRC GBAJE0401697
INDEX 01 04:18:15
TRACK 03 AUDIO
TITLE “Rat Race”
PERFORMER “Billy Idol”
ISRC GBAJE0401698
INDEX 01 07:51:39
TRACK 04 AUDIO
TITLE “Sherri”
PERFORMER “Billy Idol”
ISRC GBAJE0401699
INDEX 00 12:08:71
INDEX 01 12:09:05
TRACK 05 AUDIO
TITLE “Plastic Jesus”
PERFORMER “Billy Idol”
ISRC GBAJE0401700
INDEX 00 15:25:12
INDEX 01 15:26:30
TRACK 06 AUDIO
TITLE “Scream”
PERFORMER “Billy Idol”
ISRC GBAJE0401706
INDEX 01 20:19:64
TRACK 07 AUDIO
TITLE “Yellin’ At The Xmas Tree”
PERFORMER “Billy Idol”
ISRC GBAJE0401707
INDEX 00 25:01:51
INDEX 01 25:02:60
TRACK 08 AUDIO
TITLE “Romeo’s Waiting”
PERFORMER “Billy Idol”
ISRC GBAJE0401709
INDEX 00 29:16:37
INDEX 01 29:16:63
TRACK 09 AUDIO
TITLE “Body Snatcher”
PERFORMER “Billy Idol”
ISRC GBAJE0401710
INDEX 01 32:59:60
TRACK 10 AUDIO
TITLE “Evil Eye”
PERFORMER “Billy Idol”
ISRC GBAJE0401711
INDEX 01 36:56:66
TRACK 11 AUDIO
TITLE “Lady Do Or Die”
PERFORMER “Billy Idol”
ISRC GBAJE0401712
INDEX 01 41:29:43
TRACK 12 AUDIO
TITLE “Cherie”
PERFORMER “Billy Idol”
ISRC GBAJE0400077
INDEX 01 46:07:04
TRACK 13 AUDIO
TITLE “Summer Running”
PERFORMER “Billy Idol”
ISRC GBAJE0401713
INDEX 01 49:54:35


Leave a Reply

Your email address will not be published. Required fields are marked *

Enter the text from the image below
 

This site uses Akismet to reduce spam. Learn how your comment data is processed.