Billy Idol – Charmed Life




Artist: Billy Idol
Year: 1990
Genre: Rock
Notes: Discogs
Add. Notes:
Encoder: FLAC
Bitrate: ~900 kBit/s (44.1 kHz/16 Bit/s)
Size: 691,48 MB
Password: “slam” (without ” “)


http://www.share-online.biz/dl/LR9OHKRPA1
http://www.share-online.biz/dl/H20OHKRPGB9
https://rapidgator.net/file/eafc2e4aa73d1c5dd68b12b34a317833
https://rapidgator.net/file/fddd046d6ce6ffcaf068699ae66731a6
https://uploadbyte.com/2ja9pj0gpjh6
https://uploadbyte.com/79w2crt593o9
https://hitfile.net/6ccBzCV
https://hitfile.net/bmbDBBp

Tracklist:

1 - The Loveless - 4:17
2 - Pumping On Steel - 4:42
3 - Prodigal Blues - 5:41
4 - L.A. Woman - 5:29
5 - Trouble With The Sweet Stuff - 4:40
6 - Cradle Of Love - 4:39
7 - Mark Of Caine - 4:33
8 - Endless Sleep - 3:13
9 - Love Unchained - 4:41
10 - The Right Way - 5:05
11 - License To Thrill - 6:02

EAC-Log, CUE-Sheed & NFO:

Click to open spoiler
Exact Audio Copy V1.0 beta 3 from 29. August 2011

EAC extraction logfile from 21. December 2012, 0:17

Billy Idol / Charmed Life

Used drive : Optiarc BD RW BD-5300S Adapter: 3 ID: 0

Read mode : Secure
Utilize accurate stream : Yes
Defeat audio cache : Yes
Make use of C2 pointers : No

Read offset correction : 6
Overread into Lead-In and Lead-Out : No
Fill up missing offset samples with silence : Yes
Delete leading and trailing silent blocks : No
Null samples used in CRC calculations : Yes
Used interface : Installed external ASPI interface

Used output format : User Defined Encoder
Selected bitrate : 1024 kBit/s
Quality : High
Add ID3 tag : No
Command line compressor : C:\Program Files (x86)\Exact Audio Copy\Flac\flac.exe
Additional command line options : -8 -V -T “Date=%year%” -T “Genre=%genre%” -T “COMMENT=ripped by bvstudio®” %source%

TOC of the extracted CD

Track | Start | Length | Start sector | End sector
———————————————————
1 | 0:00.00 | 4:17.32 | 0 | 19306
2 | 4:17.32 | 4:42.58 | 19307 | 40514
3 | 9:00.15 | 5:42.02 | 40515 | 66166
4 | 14:42.17 | 5:30.23 | 66167 | 90939
5 | 20:12.40 | 5:59.25 | 90940 | 117889
6 | 26:11.65 | 4:41.27 | 117890 | 138991
7 | 30:53.17 | 4:32.43 | 138992 | 159434
8 | 35:25.60 | 3:13.05 | 159435 | 173914
9 | 38:38.65 | 4:40.47 | 173915 | 194961
10 | 43:19.37 | 5:04.38 | 194962 | 217799
11 | 48:24.00 | 6:02.20 | 217800 | 244969

Range status and errors

Selected range

Filename F:\Billy Idol\1990 – Charmed Life\Billy Idol – Charmed Life.wav

Peak level 100.0 %
Extraction speed 7.4 X
Range quality 100.0 %
Test CRC F747DFFC
Copy CRC F747DFFC
Copy OK

No errors occurred

AccurateRip summary

Track 1 accurately ripped (confidence 7) [D8AA6497] (AR v1)
Track 2 accurately ripped (confidence 7) [B6C6B0B3] (AR v1)
Track 3 accurately ripped (confidence 7) [C655CDA7] (AR v1)
Track 4 accurately ripped (confidence 7) [B7629568] (AR v1)
Track 5 accurately ripped (confidence 7) [5C12B9B3] (AR v1)
Track 6 accurately ripped (confidence 7) [DF38D49B] (AR v1)
Track 7 accurately ripped (confidence 7) [CE377A52] (AR v1)
Track 8 accurately ripped (confidence 7) [FF8ED1A1] (AR v1)
Track 9 accurately ripped (confidence 7) [DDC89BCA] (AR v1)
Track 10 accurately ripped (confidence 7) [88358AF9] (AR v1)
Track 11 accurately ripped (confidence 6) [F2B9ADE9] (AR v1)

All tracks accurately ripped

End of status report

==== Log checksum C836EFD18D537048D79A971AE7BF2E1B343206C2E2DCB2DBFD7DC5C3350EBFFB ====

REM GENRE Rock
REM DATE 1990
REM DISCID 890CC20B
REM COMMENT “ExactAudioCopy v1.0b3”
PERFORMER “Billy Idol”
TITLE “Charmed Life”
FILE “Billy Idol – Charmed Life.flac” WAVE
TRACK 01 AUDIO
TITLE “The Loveless”
PERFORMER “Billy Idol”
INDEX 01 00:00:00
TRACK 02 AUDIO
TITLE “Pumping On Steel”
PERFORMER “Billy Idol”
INDEX 01 04:17:32
TRACK 03 AUDIO
TITLE “Prodigal Blues”
PERFORMER “Billy Idol”
INDEX 00 08:59:42
INDEX 01 09:00:15
TRACK 04 AUDIO
TITLE “L.A. Woman”
PERFORMER “Billy Idol”
INDEX 00 14:41:37
INDEX 01 14:42:17
TRACK 05 AUDIO
TITLE “Trouble With The Sweet Stuff”
PERFORMER “Billy Idol”
INDEX 00 20:11:67
INDEX 01 20:12:40
TRACK 06 AUDIO
TITLE “Cradle Of Love”
PERFORMER “Billy Idol”
INDEX 00 26:11:30
INDEX 01 26:11:65
TRACK 07 AUDIO
TITLE “Mark Of Caine”
PERFORMER “Billy Idol”
INDEX 00 30:52:22
INDEX 01 30:53:17
TRACK 08 AUDIO
TITLE “Endless Sleep”
PERFORMER “Billy Idol”
INDEX 01 35:25:60
TRACK 09 AUDIO
TITLE “Love Unchained”
PERFORMER “Billy Idol”
INDEX 01 38:38:65
TRACK 10 AUDIO
TITLE “The Right Way”
PERFORMER “Billy Idol”
INDEX 01 43:19:37
TRACK 11 AUDIO
TITLE “License To Thrill”
PERFORMER “Billy Idol”
INDEX 01 48:24:00

Leave a Reply

Your email address will not be published. Required fields are marked *

This site uses Akismet to reduce spam. Learn how your comment data is processed.