Billy Idol – Billy Idol




Artist: Billy Idol
Year: 1982/1993
Genre: Rock
Notes: Discogs
Add. Notes:
Encoder: FLAC
Bitrate: ~800 kBit/s (44.1 kHz/16 Bit/s)
Size: 232,7 MB
Password: “slam” (without ” “)


http://www.share-online.biz/dl/BXN2WCRP61V
https://rapidgator.net/file/b9e24c03377ccfa4ded4b0608644b0d3
https://ayefiles.com/9muywcpv3scg/BiId-1982-BiId.rar.html
https://hitfile.net/NRP5B09

Tracklist:

1 - Come On, Come On - 4:00
2 - White Wedding (Part I) - 4:11
3 - Hot In The City - 3:40
4 - Dead On Arrival - 3:54
5 - Nobody's Business - 4:06
6 - Love Calling - 4:48
7 - Hole In The Wall - 4:14
8 - Shooting Stars - 4:30
9 - It's So Cruel - 5:20
10 - Congo Man - 1:08

EAC-Log, CUE-Sheed & NFO:

Click to open spoiler
Exact Audio Copy V1.0 beta 3 from 29. August 2011

Отчёт EAC об извлечении, выполненном 29. февраля 2012, 11:50

Billy Idol / Billy Idol

Дисковод: HL-DT-STDVDRAM GH22NS40 Adapter: 2 ID: 0

Режим чтения : Достоверность
Использование точного потока : Да
Отключение кэша аудио : Да
Использование указателей C2 : Нет

Коррекция смещения при чтении : 667
Способность читать области Lead-in и Lead-out : Нет
Заполнение пропущенных сэмплов тишиной : Да
Удаление блоков с тишиной в начале и конце : Нет
При вычислениях CRC использовались нулевые сэмплы : Да
Интерфейс : Встроенный Win32-интерфейс для Win NT/2000

Выходной формат : Пользовательский кодировщик
Выбранный битрейт : 128 kBit/s
Качество : Высокий
Добавление ID3-тега : Нет
Утилита сжатия : C:\Program Files\Exact Audio Copy\Flac\flac.exe
Дополнительные параметры : -V -8 -T “Date=%year%” -T “Genre=%genre%” %source%

TOC извлечённого CD

Трек | Старт | Длительность | Начальный сектор | Конечный сектор
———————————————————————
1 | 0:00.00 | 4:01.25 | 0 | 18099
2 | 4:01.25 | 4:13.25 | 18100 | 37099
3 | 8:14.50 | 3:39.50 | 37100 | 53574
4 | 11:54.25 | 3:55.30 | 53575 | 71229
5 | 15:49.55 | 4:05.30 | 71230 | 89634
6 | 19:55.10 | 4:56.40 | 89635 | 111874
7 | 24:51.50 | 4:11.20 | 111875 | 130719
8 | 29:02.70 | 4:33.47 | 130720 | 151241
9 | 33:36.42 | 5:15.10 | 151242 | 174876
10 | 38:51.52 | 0:48.60 | 174877 | 178536

Характеристики диапазона извлечения и сообщения об ошибках

Выбранный диапазон

Имя файла D:\Billy Idol\Billy Idol – Billy Idol.wav

Пиковый уровень 100.0 %
Скорость извлечения 1.5 X
Качество диапазона 99.9 %
CRC теста 261DB179
CRC копии 261DB179
Копирование… OK

Ошибок не произошло

AccurateRip: сводка

Трек 1 : извлечено точно (доверие 2) [4267E648] (AR v2)
Трек 2 : извлечено точно (доверие 2) [B86E3452] (AR v2)
Трек 3 : извлечено точно (доверие 2) [9E98EA10] (AR v2)
Трек 4 : извлечено точно (доверие 2) [3061B3C5] (AR v2)
Трек 5 : извлечено точно (доверие 2) [C6236975] (AR v2)
Трек 6 : извлечено точно (доверие 2) [8FC14969] (AR v2)
Трек 7 : извлечено точно (доверие 2) [8E795B24] (AR v2)
Трек 8 : извлечено точно (доверие 2) [EB5FBC7B] (AR v2)
Трек 9 : извлечено точно (доверие 2) [61D8827B] (AR v2)
Трек 10 : извлечено точно (доверие 2) [F8F19520] (AR v2)

Все треки извлечены точно

Конец отчёта

==== Контрольная сумма отчёта 7EA6327C0381CA8A4431E338187F0EA0546987B87AFA8F588163086CC85BE92C ====

REM GENRE Rock
REM DATE 1982
REM DISCID 84094C0A
REM COMMENT “ExactAudioCopy v1.0b3”
CATALOG 0000000000000
PERFORMER “Billy Idol”
TITLE “Billy Idol”
FILE “Billy Idol – Billy Idol.flac” WAVE
TRACK 01 AUDIO
TITLE “Come On, Come On”
PERFORMER “Billy Idol”
INDEX 01 00:00:00
TRACK 02 AUDIO
TITLE “White Wedding (Part 1)”
PERFORMER “Billy Idol”
INDEX 00 03:59:12
INDEX 01 04:01:25
TRACK 03 AUDIO
TITLE “Hot In The City”
PERFORMER “Billy Idol”
INDEX 00 08:13:17
INDEX 01 08:14:50
TRACK 04 AUDIO
TITLE “Dead On Arrival”
PERFORMER “Billy Idol”
INDEX 00 11:51:10
INDEX 01 11:54:25
TRACK 05 AUDIO
TITLE “Nobody’s Business”
PERFORMER “Billy Idol”
INDEX 00 15:49:25
INDEX 01 15:49:55
TRACK 06 AUDIO
TITLE “Love Calling”
PERFORMER “Billy Idol”
INDEX 00 19:53:47
INDEX 01 19:55:10
TRACK 07 AUDIO
TITLE “Hole In The Wall”
PERFORMER “Billy Idol”
INDEX 00 24:50:05
INDEX 01 24:51:50
TRACK 08 AUDIO
TITLE “Shooting Stars”
PERFORMER “Billy Idol”
INDEX 00 29:01:20
INDEX 01 29:02:70
TRACK 09 AUDIO
TITLE “It’s So Cruel”
PERFORMER “Billy Idol”
INDEX 00 33:35:52
INDEX 01 33:36:42
TRACK 10 AUDIO
TITLE “Congo Man”
PERFORMER “Billy Idol”
INDEX 01 38:51:52

Leave a Reply

Your email address will not be published. Required fields are marked *

This site uses Akismet to reduce spam. Learn how your comment data is processed.