Betontod – Traum von Freiheit




Artist: Betontod
Year: 2015
Genre: Punk
Notes: Discogs
Add. Notes:
Cover incl.: Yes
Encoder: FLAC
Bitrate: ~1000 kBit/s (44.1 kHz/16 Bit/s)
Log & Cue incl.: Yes/Yes
Size: 359,5 MB
Password: “slam” (without ” “)


All Downloads/Hosters are compatible

Download 1
KatFile.com
Turbobit.net
FileFactory.com
Rapidgator.net
Download 2
KatFile.com
Turbobit.net
FileFactory.com
Rapidgator.net

Tracklist:

1 - Traum Von Freiheit - 3:46
2 - Mein Letzter Tag - 3:04
3 - Ich Bereue Nichts - 3:55
4 - Für Immer - 3:39
5 - Flügel Aus Stahl - 4:05
6 - Geschichte - 3:11
7 - Nur Für Eine Nacht - 3:44
8 - Ihr Könnt Mich - 3:09
9 - Kämpferherz - 4:16
10 - Alles Was Ich Wollte - 3:40
11 - Legion Der Verdammten - 3:39
12 - Nach All Den Jahren - 3:14

EAC-Log, CUE-Sheed & NFO:

Click to open spoiler
Exact Audio Copy V1.3 from 2. September 2016

EAC extraction logfile from 8. November 2018, 20:57

Betontod / Traum von Freiheit

Used drive : PIONEER DVD-RW DVR-221L Adapter: 1 ID: 1

Read mode : Secure
Utilize accurate stream : Yes
Defeat audio cache : Yes
Make use of C2 pointers : No

Read offset correction : 6
Overread into Lead-In and Lead-Out : No
Fill up missing offset samples with silence : Yes
Delete leading and trailing silent blocks : No
Null samples used in CRC calculations : Yes
Used interface : Native Win32 interface for Win NT & 2000

Used output format : User Defined Encoder
Selected bitrate : 1024 kBit/s
Quality : High
Add ID3 tag : No
Command line compressor : C:\Program Files (x86)\Exact Audio Copy\Flac\flac.exe
Additional command line options : -V -8 -T “Date=%year%” -T “Genre=%genre%” %source%

TOC of the extracted CD

Track | Start | Length | Start sector | End sector
———————————————————
1 | 0:00.00 | 3:46.26 | 0 | 16975
2 | 3:46.26 | 3:04.27 | 16976 | 30802
3 | 6:50.53 | 3:55.05 | 30803 | 48432
4 | 10:45.58 | 3:39.16 | 48433 | 64873
5 | 14:24.74 | 4:04.55 | 64874 | 83228
6 | 18:29.54 | 3:11.21 | 83229 | 97574
7 | 21:41.00 | 3:43.63 | 97575 | 114362
8 | 25:24.63 | 3:09.00 | 114363 | 128537
9 | 28:33.63 | 4:15.70 | 128538 | 147732
10 | 32:49.58 | 3:40.05 | 147733 | 164237
11 | 36:29.63 | 3:38.64 | 164238 | 180651
12 | 40:08.52 | 3:13.39 | 180652 | 195165

Range status and errors

Selected range

Filename D:\Mutineer\Betontod – Traum von Freiheit\Betontod – Traum von Freiheit.wav

Peak level 99.6 %
Extraction speed 4.3 X
Range quality 99.9 %
Test CRC 955B5BDC
Copy CRC 955B5BDC
Copy OK

No errors occurred

AccurateRip summary

Track 1 accurately ripped (confidence 11) [FA33FAF7] (AR v2)
Track 2 accurately ripped (confidence 11) [CD7CB319] (AR v2)
Track 3 accurately ripped (confidence 11) [9266332F] (AR v2)
Track 4 accurately ripped (confidence 11) [D3FA8924] (AR v2)
Track 5 accurately ripped (confidence 11) [73E66E36] (AR v2)
Track 6 accurately ripped (confidence 11) [9226A653] (AR v2)
Track 7 accurately ripped (confidence 11) [64488B71] (AR v2)
Track 8 accurately ripped (confidence 11) [43874383] (AR v2)
Track 9 accurately ripped (confidence 11) [A5743AB1] (AR v2)
Track 10 accurately ripped (confidence 11) [B0CF48F2] (AR v2)
Track 11 accurately ripped (confidence 11) [83FADB38] (AR v2)
Track 12 accurately ripped (confidence 11) [B0715ACE] (AR v2)

All tracks accurately ripped

End of status report

==== Log checksum CF7258D4678CC5CA89469B108F7C8687B890793ADB95BDC4B533147BAA7810E9 ====

REM GENRE Punk
REM DATE 2015
REM DISCID 870A2A0C
REM COMMENT “ExactAudioCopy v1.3”
PERFORMER “Betontod”
TITLE “Traum von Freiheit”
REM COMPOSER “”
FILE “Betontod – Traum von Freiheit.flac” WAVE
TRACK 01 AUDIO
TITLE “Traum von Freiheit”
PERFORMER “Betontod”
REM COMPOSER “”
INDEX 01 00:00:00
TRACK 02 AUDIO
TITLE “Mein letzter Tag”
PERFORMER “Betontod”
REM COMPOSER “”
INDEX 01 03:46:26
TRACK 03 AUDIO
TITLE “Ich bereue nichts”
PERFORMER “Betontod”
REM COMPOSER “”
INDEX 01 06:50:53
TRACK 04 AUDIO
TITLE “Fur immer”
PERFORMER “Betontod”
REM COMPOSER “”
INDEX 01 10:45:58
TRACK 05 AUDIO
TITLE “Flugel aus Stahl”
PERFORMER “Betontod”
REM COMPOSER “”
INDEX 01 14:24:74
TRACK 06 AUDIO
TITLE “Geschichte”
PERFORMER “Betontod”
REM COMPOSER “”
INDEX 01 18:29:54
TRACK 07 AUDIO
TITLE “Nur fur eine Nacht”
PERFORMER “Betontod”
REM COMPOSER “”
INDEX 01 21:41:00
TRACK 08 AUDIO
TITLE “Ihr konnt mich”
PERFORMER “Betontod”
REM COMPOSER “”
INDEX 01 25:24:63
TRACK 09 AUDIO
TITLE “Kampferherz”
PERFORMER “Betontod”
REM COMPOSER “”
INDEX 01 28:33:63
TRACK 10 AUDIO
TITLE “Alles was ich wollte”
PERFORMER “Betontod”
REM COMPOSER “”
INDEX 01 32:49:58
TRACK 11 AUDIO
TITLE “Legion der Verdammten”
PERFORMER “Betontod”
REM COMPOSER “”
INDEX 01 36:29:63
TRACK 12 AUDIO
TITLE “Nach all den Jahren”
PERFORMER “Betontod”
REM COMPOSER “”
INDEX 01 40:08:52


Leave a Reply

Your email address will not be published. Required fields are marked *

This site uses Akismet to reduce spam. Learn how your comment data is processed.