Betontod – Stoppt uns wenn ihr könnt




No Cover available

Artist: Betontod
Year: 2001
Genre: Punk
Notes: Discogs
Add. Notes:
Watch Songs on: YouTube
Cover incl.: Yes
Encoder: FLAC
Bitrate: ~1000 kBit/s (44.1 kHz/16 Bit/s)
Log & Cue incl.: Yes
Size: 342 MB
Password: “slam” (without ” “)


All Downloads/Hosters are compatible

Download 1
KatFile.com
Turbobit.net
Rapidgator.net
Share-online.biz
Download 2
KatFile.com
Turbobit.net
Rapidgator.net
Share-online.biz

Tracklist:

1 - Intro - 0:43
2 - 7 Schuss - 3:05
3 - Schrei Es Raus - 3:18
4 - Integration - 2:56
5 - So Jung Wie Heut - 3:15
6 - Wenn Es Einen Gott Gibt - 3:57
7 - Gib Mir Ein Zeichen - 3:00
8 - Te Daria - 3:02
9 - Freiheit In Ketten - 3:02
10 - Ich Will Hier Raus - 3:47
11 - Wintermärchen - 4:03
12 - Freunde In Grün - 2:10
13 - Ein Neuer Tag - 4:04
14 - Tanz Der Teufel - 4:48
15 - Exzessiver Alkoholgenuss - 2:54

EAC-Log, CUE-Sheed & NFO:

Click to open spoiler
Exact Audio Copy V0.99 prebeta 5 from 4. May 2009

EAC Auslese-Logdatei vom 12. April 2011, 12:02

Betontod / Stoppt uns wenn ihr könnt

Benutztes Laufwerk : SONY DVD-ROM DDU1615 Adapter: 2 ID: 1

Lesemodus : Sicher
Benutze Accurate Stream : Ja
Audio Puffer abgeschaltet : Ja
Benutze C2 Fehlerinformationen : Ja

Leseoffset Korrektur : 6
Überlesen in das Lead-In und Lead-Out : Nein
Fülle fehlende Offsetsample mit Stille auf : Ja
Lösche führende und nachfolgende stille Blöcke : Nein
Null Samples gehen in CRC Berechnungen ein : Nein
Benutzte Schnittstelle : Natürliche Win32 Schnittstelle für Win NT/2000/XP
Pausenbehandlung : Hinter dem vorigen Track angehängt

Benutztes Ausgabeformat : Benutzerdefinierter Komprimierer
Gewählte Bitrate : 1024 kBit/s
Qualität : Hoch
Füge ID3 Tag hinzu : Nein
Kommandozeilen Komprimierer : D:\Exact Audio Copy\FLAC\FLAC.EXE
Zusätzliche Kommandozeilenoptionen : -8 -V -T “ARTIST=%a” -T “TITLE=%t” -T “ALBUM=%g” -T “DATE=%y” -T “TRACKNUMBER=%n” -T “GENRE=%m” -T “COMMENT=%e” %s -o %d

TOC der ausgelesenen CD

Track | Start | Länge | Startsektor | Endsektor
——————————————————-
1 | 0:00.00 | 0:44.06 | 0 | 3305
2 | 0:44.06 | 3:05.74 | 3306 | 17254
3 | 3:50.05 | 3:19.09 | 17255 | 32188
4 | 7:09.14 | 2:56.13 | 32189 | 45401
5 | 10:05.27 | 3:16.06 | 45402 | 60107
6 | 13:21.33 | 3:57.11 | 60108 | 77893
7 | 17:18.44 | 3:01.42 | 77894 | 91510
8 | 20:20.11 | 3:03.48 | 91511 | 105283
9 | 23:23.59 | 3:03.70 | 105284 | 119078
10 | 26:27.54 | 3:19.12 | 119079 | 134015
11 | 29:46.66 | 4:04.16 | 134016 | 152331
12 | 33:51.07 | 2:11.72 | 152332 | 162228
13 | 36:03.04 | 4:05.52 | 162229 | 180655
14 | 40:08.56 | 4:49.24 | 180656 | 202354
15 | 44:58.05 | 2:53.27 | 202355 | 215356

Track 1

Dateiname F:\stoppt\Intro.wav

Pausenlänge 0:00:02.00

Spitzenpegel 60.2 %
Track Qualität 100.0 %
Test CRC 291D997F
Kopie CRC 291D997F
Kopie OK

Track 2

Dateiname F:\stoppt\7 Schuss.wav

Pausenlänge 0:00:02.00

Spitzenpegel 97.2 %
Track Qualität 100.0 %
Test CRC F96A57E0
Kopie CRC F96A57E0
Kopie OK

Track 3

Dateiname F:\stoppt\Schrei es raus.wav

Pausenlänge 0:00:02.00

Spitzenpegel 97.5 %
Track Qualität 100.0 %
Test CRC D3883ACF
Kopie CRC D3883ACF
Kopie OK

Track 4

Dateiname F:\stoppt\Integration.wav

Pausenlänge 0:00:02.00

Spitzenpegel 97.4 %
Track Qualität 100.0 %
Test CRC A9A1F3FF
Kopie CRC A9A1F3FF
Kopie OK

Track 5

Dateiname F:\stoppt\So jung wie heut.wav

Pausenlänge 0:00:02.00

Spitzenpegel 99.9 %
Track Qualität 100.0 %
Test CRC 60F069C8
Kopie CRC 60F069C8
Kopie OK

Track 6

Dateiname F:\stoppt\Wenn es einen Gott gibt.wav

Pausenlänge 0:00:02.00

Spitzenpegel 99.8 %
Track Qualität 99.9 %
Test CRC A2FA362C
Kopie CRC A2FA362C
Kopie OK

Track 7

Dateiname F:\stoppt\Gib mir ein Zeichen.wav

Pausenlänge 0:00:02.00

Spitzenpegel 99.8 %
Track Qualität 100.0 %
Test CRC 1F7D5F21
Kopie CRC 1F7D5F21
Kopie OK

Track 8

Dateiname F:\stoppt\Te Daria.wav

Pausenlänge 0:00:02.00

Spitzenpegel 99.9 %
Track Qualität 100.0 %
Test CRC EDFE2893
Kopie CRC EDFE2893
Kopie OK

Track 9

Dateiname F:\stoppt\Freiheit in Ketten.wav

Pausenlänge 0:00:02.00

Spitzenpegel 100.0 %
Track Qualität 100.0 %
Test CRC 2AA51487
Kopie CRC 2AA51487
Kopie OK

Track 10

Dateiname F:\stoppt\Ich will hier raus.wav

Pausenlänge 0:00:02.00

Spitzenpegel 99.9 %
Track Qualität 100.0 %
Test CRC 78D0E654
Kopie CRC 78D0E654
Kopie OK

Track 11

Dateiname F:\stoppt\Wintermärchen.wav

Pausenlänge 0:00:02.00

Spitzenpegel 99.9 %
Track Qualität 100.0 %
Test CRC C282CAB3
Kopie CRC C282CAB3
Kopie OK

Track 12

Dateiname F:\stoppt\Freunde in grün.wav

Pausenlänge 0:00:02.00

Spitzenpegel 99.9 %
Track Qualität 99.8 %
Test CRC ED54749E
Kopie CRC ED54749E
Kopie OK

Track 13

Dateiname F:\stoppt\Ein neuer Tag.wav

Pausenlänge 0:00:02.00

Spitzenpegel 99.9 %
Track Qualität 100.0 %
Test CRC 59FD1663
Kopie CRC 59FD1663
Kopie OK

Track 14

Dateiname F:\stoppt\Tanz der Teufel.wav

Pausenlänge 0:00:02.00

Spitzenpegel 90.6 %
Track Qualität 100.0 %
Test CRC 911C17DB
Kopie CRC 911C17DB
Kopie OK

Track 15

Dateiname F:\stoppt\Exzessiver Alkoholgenuss.wav

Pausenlänge 0:00:02.00

Spitzenpegel 99.9 %
Track Qualität 100.0 %
Test CRC EC1140C4
Kopie CRC EC1140C4
Kopie OK

Keine Fehler aufgetreten

Ende des Statusreports

REM GENRE Rock
REM DATE 2001
REM DISCID 9E0B370F
REM COMMENT “ExactAudioCopy v0.99pb5”
PERFORMER “Betontod”
TITLE “Stoppt uns wenn ihr könnt”
FILE “Betontod – Stoppt uns wenn ihr könnt -01- Intro.flac” WAVE
TRACK 01 AUDIO
TITLE “Intro”
PERFORMER “Betontod”
FLAGS DCP
INDEX 01 00:00:00
TRACK 02 AUDIO
TITLE “7 Schuss”
PERFORMER “Betontod”
FLAGS DCP
INDEX 00 00:42:06
FILE “Betontod – Stoppt uns wenn ihr könnt -02- 7 Schuss.flac” WAVE
INDEX 01 00:00:00
TRACK 03 AUDIO
TITLE “Schrei es raus”
PERFORMER “Betontod”
FLAGS DCP
INDEX 00 03:03:74
FILE “Betontod – Stoppt uns wenn ihr könnt -03- Schrei es raus.flac” WAVE
INDEX 01 00:00:00
TRACK 04 AUDIO
TITLE “Integration”
PERFORMER “Betontod”
FLAGS DCP
INDEX 00 03:17:09
FILE “Betontod – Stoppt uns wenn ihr könnt -04- Integration.flac” WAVE
INDEX 01 00:00:00
TRACK 05 AUDIO
TITLE “So jung wie heut”
PERFORMER “Betontod”
FLAGS DCP
INDEX 00 02:54:13
FILE “Betontod – Stoppt uns wenn ihr könnt -05- So jung wie heut.flac” WAVE
INDEX 01 00:00:00
TRACK 06 AUDIO
TITLE “Wenn es einen Gott gibt”
PERFORMER “Betontod”
FLAGS DCP
INDEX 00 03:14:06
FILE “Betontod – Stoppt uns wenn ihr könnt -06- Wenn es einen Gott gibt.flac” WAVE
INDEX 01 00:00:00
TRACK 07 AUDIO
TITLE “Gib mir ein Zeichen”
PERFORMER “Betontod”
FLAGS DCP
INDEX 00 03:55:11
FILE “Betontod – Stoppt uns wenn ihr könnt -07- Gib mir ein Zeichen.flac” WAVE
INDEX 01 00:00:00
TRACK 08 AUDIO
TITLE “Te Daria”
PERFORMER “Betontod”
FLAGS DCP
INDEX 00 02:59:42
FILE “Betontod – Stoppt uns wenn ihr könnt -08- Te Daria.flac” WAVE
INDEX 01 00:00:00
TRACK 09 AUDIO
TITLE “Freiheit in Ketten”
PERFORMER “Betontod”
FLAGS DCP
INDEX 00 03:01:48
FILE “Betontod – Stoppt uns wenn ihr könnt -09- Freiheit in Ketten.flac” WAVE
INDEX 01 00:00:00
TRACK 10 AUDIO
TITLE “Ich will hier raus”
PERFORMER “Betontod”
FLAGS DCP
INDEX 00 03:01:70
FILE “Betontod – Stoppt uns wenn ihr könnt -10- Ich will hier raus.flac” WAVE
INDEX 01 00:00:00
TRACK 11 AUDIO
TITLE “Wintermärchen ”
PERFORMER “Betontod”
FLAGS DCP
INDEX 00 03:17:12
FILE “Betontod – Stoppt uns wenn ihr könnt -11- Wintermärchen .flac” WAVE
INDEX 01 00:00:00
TRACK 12 AUDIO
TITLE “Freunde in grün”
PERFORMER “Betontod”
FLAGS DCP
INDEX 00 04:02:16
FILE “Betontod – Stoppt uns wenn ihr könnt -12- Freunde in grün.flac” WAVE
INDEX 01 00:00:00
TRACK 13 AUDIO
TITLE “Ein neuer Tag”
PERFORMER “Betontod”
FLAGS DCP
INDEX 00 02:09:72
FILE “Betontod – Stoppt uns wenn ihr könnt -13- Ein neuer Tag.flac” WAVE
INDEX 01 00:00:00
TRACK 14 AUDIO
TITLE “Tanz der Teufel”
PERFORMER “Betontod”
FLAGS DCP
INDEX 00 04:03:52
FILE “Betontod – Stoppt uns wenn ihr könnt -14- Tanz der Teufel.flac” WAVE
INDEX 01 00:00:00
TRACK 15 AUDIO
TITLE “Exzessiver Alkoholgenuss”
PERFORMER “Betontod”
FLAGS DCP
INDEX 00 04:47:24
FILE “Betontod – Stoppt uns wenn ihr könnt -15- Exzessiver Alkoholgenuss.flac” WAVE
INDEX 01 00:00:00


Leave a Reply

Your email address will not be published. Required fields are marked *

This site uses Akismet to reduce spam. Learn how your comment data is processed.