Betontod – GlaubeLiebeHoffnung




Artist: Betontod
Year: 2010
Genre: Punk
Notes: Discogs
Add. Notes:
Cover incl.: Yes
Encoder: FLAC
Bitrate: ~1100 kBit/s (44.1 kHz/16 Bit/s)
Log & Cue incl.: Yes
Size: 350,4 MB
Password: “slam” (without ” “)


All Downloads/Hosters are compatible

Download 1
KatFile.com
Turbobit.net
FileFactory.com
Rapidgator.net
Download 2
KatFile.com
Turbobit.net
FileFactory.com
Rapidgator.net

Tracklist:

1 - Nichts - 3:20
2 - Stich Ins Herz - 3:37
3 - Stadt Ohne Licht - 3:38
4 - Alphatier - 4:05
5 - Ohne Standpunkt - 4:00
6 - Leb Dein Leben - 3:23
7 - GlaubeLiebeHoffnung - 3:45
8 - Ewigkeit - 3:26
9 - Land In Sicht - 3:54
10 - Club Der Reichen - 2:26
11 - Sexy Blutsommer 89 - 3:19
12 - Faktor Mensch - 2:59
13 - Nimmerland - 3:04

EAC-Log, CUE-Sheed & NFO:

Click to open spoiler
Exact Audio Copy V1.0 beta 3 from 29. August 2011

EAC extraction logfile from 17. October 2012, 10:56

Betontod / GlaubeLiebeHoffnung

Used drive : HL-DT-STDVDRAM GH24LS50 Adapter: 2 ID: 1

Read mode : Secure
Utilize accurate stream : Yes
Defeat audio cache : No
Make use of C2 pointers : Yes

Read offset correction : 667
Overread into Lead-In and Lead-Out : No
Fill up missing offset samples with silence : Yes
Delete leading and trailing silent blocks : No
Null samples used in CRC calculations : Yes
Used interface : Native Win32 interface for Win NT & 2000
Gap handling : Appended to previous track

Used output format : User Defined Encoder
Selected bitrate : 768 kBit/s
Quality : High
Add ID3 tag : No
Command line compressor : C:\Program Files (x86)\Exact Audio Copy\FLAC\FLAC.EXE
Additional command line options : -6 -V -T “ARTIST=%artist%” -T “TITLE=%title%” -T “ALBUM=%albumtitle%” -T “DATE=%year%” -T “TRACKNUMBER=%tracknr%” -T “GENRE=%genre%” -T “COMMENT=%comment%” -T “BAND=%albuminterpret%” -T “ALBUMARTIST=%albuminterpret%” -T “COMPOSER=%composer%” %haslyrics%–tag-from-file=LYRICS=”%lyricsfile%”%haslyrics% -T “DISCNUMBER=%cdnumber%” -T “TOTALDISCS=%totalcds%” -T “TOTALTRACKS=%numtracks%” %hascover%–picture=”%coverfile%”%hascover% %source% -o %dest%

TOC of the extracted CD

Track | Start | Length | Start sector | End sector
———————————————————
1 | 0:00.00 | 3:20.19 | 0 | 15018
2 | 3:20.19 | 3:36.72 | 15019 | 31290
3 | 6:57.16 | 3:38.04 | 31291 | 47644
4 | 10:35.20 | 4:04.60 | 47645 | 66004
5 | 14:40.05 | 4:00.16 | 66005 | 84020
6 | 18:40.21 | 3:22.48 | 84021 | 99218
7 | 22:02.69 | 3:45.13 | 99219 | 116106
8 | 25:48.07 | 3:26.22 | 116107 | 131578
9 | 29:14.29 | 3:53.57 | 131579 | 149110
10 | 33:08.11 | 2:25.62 | 149111 | 160047
11 | 35:33.73 | 3:19.20 | 160048 | 174992
12 | 38:53.18 | 2:59.13 | 174993 | 188430
13 | 41:52.31 | 3:03.55 | 188431 | 202210

Track 1

Filename C:\Users\Soifa\Documents\Betontod – GlaubeLiebeHoffnung\01. Nichts.wav

Pre-gap length 0:00:02.00

Peak level 98.8 %
Extraction speed 7.4 X
Track quality 100.0 %
Test CRC 0611C7D6
Copy CRC 0611C7D6
Accurately ripped (confidence 5) [1AD2C217] (AR v1)
Copy OK

Track 2

Filename C:\Users\Soifa\Documents\Betontod – GlaubeLiebeHoffnung\02. Stich ins Herz.wav

Pre-gap length 0:00:02.00

Peak level 98.8 %
Extraction speed 7.4 X
Track quality 100.0 %
Test CRC E0342D19
Copy CRC E0342D19
Accurately ripped (confidence 5) [257C9252] (AR v1)
Copy OK

Track 3

Filename C:\Users\Soifa\Documents\Betontod – GlaubeLiebeHoffnung\03. Stadt ohne Licht.wav

Pre-gap length 0:00:02.00

Peak level 98.8 %
Extraction speed 8.8 X
Track quality 100.0 %
Test CRC C2CEA2EB
Copy CRC C2CEA2EB
Accurately ripped (confidence 5) [8B408173] (AR v1)
Copy OK

Track 4

Filename C:\Users\Soifa\Documents\Betontod – GlaubeLiebeHoffnung\04. Alphatier.wav

Pre-gap length 0:00:02.00

Peak level 98.8 %
Extraction speed 9.5 X
Track quality 100.0 %
Test CRC ECF1C11A
Copy CRC ECF1C11A
Accurately ripped (confidence 5) [44199FF7] (AR v1)
Copy OK

Track 5

Filename C:\Users\Soifa\Documents\Betontod – GlaubeLiebeHoffnung\05. Ohne Standpunkt.wav

Pre-gap length 0:00:02.00

Peak level 98.8 %
Extraction speed 9.3 X
Track quality 100.0 %
Test CRC D630B9FB
Copy CRC D630B9FB
Accurately ripped (confidence 5) [5547D911] (AR v1)
Copy OK

Track 6

Filename C:\Users\Soifa\Documents\Betontod – GlaubeLiebeHoffnung\06. Leb dein Leben.wav

Pre-gap length 0:00:02.00

Peak level 98.8 %
Extraction speed 9.7 X
Track quality 100.0 %
Test CRC 08CF1F14
Copy CRC 08CF1F14
Accurately ripped (confidence 5) [2642E676] (AR v1)
Copy OK

Track 7

Filename C:\Users\Soifa\Documents\Betontod – GlaubeLiebeHoffnung\07. GlaubeLiebeHoffnung.wav

Pre-gap length 0:00:02.00

Peak level 98.8 %
Extraction speed 10.3 X
Track quality 100.0 %
Test CRC A6EE32E9
Copy CRC A6EE32E9
Accurately ripped (confidence 4) [88B4EBFB] (AR v1)
Copy OK

Track 8

Filename C:\Users\Soifa\Documents\Betontod – GlaubeLiebeHoffnung\08. Ewigkeit.wav

Pre-gap length 0:00:02.00

Peak level 98.8 %
Extraction speed 11.8 X
Track quality 100.0 %
Test CRC D1043662
Copy CRC D1043662
Accurately ripped (confidence 4) [E9B95B7D] (AR v1)
Copy OK

Track 9

Filename C:\Users\Soifa\Documents\Betontod – GlaubeLiebeHoffnung\09. Land in Sicht.wav

Pre-gap length 0:00:02.00

Peak level 98.8 %
Extraction speed 11.2 X
Track quality 100.0 %
Test CRC FA4822DB
Copy CRC FA4822DB
Accurately ripped (confidence 5) [0496F915] (AR v1)
Copy OK

Track 10

Filename C:\Users\Soifa\Documents\Betontod – GlaubeLiebeHoffnung\10. Club der Reichen.wav

Pre-gap length 0:00:02.00

Peak level 99.1 %
Extraction speed 10.9 X
Track quality 100.0 %
Test CRC 89068BAB
Copy CRC 89068BAB
Accurately ripped (confidence 4) [4B1A0656] (AR v1)
Copy OK

Track 11

Filename C:\Users\Soifa\Documents\Betontod – GlaubeLiebeHoffnung\11. Sexy Blutsommer 89.wav

Pre-gap length 0:00:02.01

Peak level 98.8 %
Extraction speed 13.1 X
Track quality 100.0 %
Test CRC C0723043
Copy CRC C0723043
Accurately ripped (confidence 4) [D1D624E9] (AR v1)
Copy OK

Track 12

Filename C:\Users\Soifa\Documents\Betontod – GlaubeLiebeHoffnung\12. Faktor Mensch.wav

Pre-gap length 0:00:02.00

Peak level 98.8 %
Extraction speed 13.4 X
Track quality 100.0 %
Test CRC D74D4147
Copy CRC D74D4147
Accurately ripped (confidence 4) [52B79BF8] (AR v1)
Copy OK

Track 13

Filename C:\Users\Soifa\Documents\Betontod – GlaubeLiebeHoffnung\13. Nimmerland.wav

Pre-gap length 0:00:02.01

Peak level 98.8 %
Extraction speed 12.8 X
Track quality 100.0 %
Test CRC 3B1792F0
Copy CRC 3B1792F0
Accurately ripped (confidence 4) [BEA1D1A7] (AR v1)
Copy OK

All tracks accurately ripped

No errors occurred

End of status report

—- CUETools DB Plugin V2.1.3

[CTDB TOCID: leUtLTcz5X71elGMPHhXpjDJFdo-] found, Submit result: leUtLTcz5X71elGMPHhXpjDJFdo- has been confirmed
[bffb444d] (4/4) Accurately ripped

REM GENRE Punk
REM DATE 2010
REM DISCID 9B0A880D
REM COMMENT “ExactAudioCopy v1.0b3”
PERFORMER “Betontod”
TITLE “GlaubeLiebeHoffnung”
FILE “01. Nichts.wav” WAVE
TRACK 01 AUDIO
TITLE “Nichts”
PERFORMER “Betontod”
ISRC DEMU30900001
FLAGS DCP
INDEX 01 00:00:00
TRACK 02 AUDIO
TITLE “Stich ins Herz”
PERFORMER “Betontod”
ISRC DEMU30900002
FLAGS DCP
INDEX 00 03:18:19
FILE “02. Stich ins Herz.wav” WAVE
INDEX 01 00:00:00
TRACK 03 AUDIO
TITLE “Stadt ohne Licht”
PERFORMER “Betontod”
ISRC DEMU30900003
FLAGS DCP
INDEX 00 03:34:72
FILE “03. Stadt ohne Licht.wav” WAVE
INDEX 01 00:00:00
TRACK 04 AUDIO
TITLE “Alphatier”
PERFORMER “Betontod”
ISRC DEMU30900004
FLAGS DCP
INDEX 00 03:36:04
FILE “04. Alphatier.wav” WAVE
INDEX 01 00:00:00
TRACK 05 AUDIO
TITLE “Ohne Standpunkt”
PERFORMER “Betontod”
ISRC DEMU30900005
FLAGS DCP
INDEX 00 04:02:60
FILE “05. Ohne Standpunkt.wav” WAVE
INDEX 01 00:00:00
TRACK 06 AUDIO
TITLE “Leb dein Leben”
PERFORMER “Betontod”
ISRC DEMU30900006
FLAGS DCP
INDEX 00 03:58:16
FILE “06. Leb dein Leben.wav” WAVE
INDEX 01 00:00:00
TRACK 07 AUDIO
TITLE “GlaubeLiebeHoffnung”
PERFORMER “Betontod”
ISRC DEMU30900007
FLAGS DCP
INDEX 00 03:20:48
FILE “07. GlaubeLiebeHoffnung.wav” WAVE
INDEX 01 00:00:00
TRACK 08 AUDIO
TITLE “Ewigkeit”
PERFORMER “Betontod”
ISRC DEMU30900008
FLAGS DCP
INDEX 00 03:43:13
FILE “08. Ewigkeit.wav” WAVE
INDEX 01 00:00:00
TRACK 09 AUDIO
TITLE “Land in Sicht”
PERFORMER “Betontod”
ISRC DEMU30900009
FLAGS DCP
INDEX 00 03:24:22
FILE “09. Land in Sicht.wav” WAVE
INDEX 01 00:00:00
TRACK 10 AUDIO
TITLE “Club der Reichen”
PERFORMER “Betontod”
ISRC DEMU30900010
FLAGS DCP
INDEX 00 03:51:57
FILE “10. Club der Reichen.wav” WAVE
INDEX 01 00:00:00
TRACK 11 AUDIO
TITLE “Sexy Blutsommer 89”
PERFORMER “Betontod”
ISRC DEMU30900011
FLAGS DCP
INDEX 00 02:23:61
FILE “11. Sexy Blutsommer 89.wav” WAVE
INDEX 01 00:00:00
TRACK 12 AUDIO
TITLE “Faktor Mensch”
PERFORMER “Betontod”
ISRC DEMU30900012
FLAGS DCP
INDEX 00 03:17:20
FILE “12. Faktor Mensch.wav” WAVE
INDEX 01 00:00:00
TRACK 13 AUDIO
TITLE “Nimmerland”
PERFORMER “Betontod”
ISRC DEMU30900013
FLAGS DCP
INDEX 00 02:57:12
FILE “13. Nimmerland.wav” WAVE
INDEX 01 00:00:00


Leave a Reply

Your email address will not be published. Required fields are marked *

This site uses Akismet to reduce spam. Learn how your comment data is processed.