Bernelius – Grave Dancer




No Cover available


Artist: Bernelius
Year: 2020
Genre: Rock
Notes: Discogs
Add. Notes:
Watch Songs on: YouTube
Cover incl.: Yes
Encoder: FLAC
Bitrate: ~800 kBit/s (44.1 kHz/16 Bit/s)
Log & Cue incl.: Yes/Yes
Size: 249,38 MB
Password: “slam” (without ” “)


All Downloads/Hosters are compatible

Download 1
KatFile.com
Turbobit.net
Rapidgator.net
FileFactory.com
Download 2
KatFile.com
Turbobit.net
Rapidgator.net
FileFactory.com

Tracklist:

01. Free Range Human (00:03:52)
02. Arm the Cannon (00:04:10)
03. The Song on the Radio (00:03:04)
04. Lone Documentarian (00:03:46)
05. Watch It Happen (00:04:52)
06. Grave Dancer (00:04:47)
07. Resurrection (00:03:54)
08. Tonight (00:04:07)
09. Vaffanculo, Assassino (00:04:07)
10. The Man Would Speak His Piece (00:02:50)

EAC-Log, CUE-Sheed & NFO:

Click to open spoiler
foobar2000 1.4.2 / Замер динамического диапазона (DR) 1.1.1
Дата отчёта: 2020-03-18 14:59:28

——————————————————————————–
Анализ: Bernelius / Grave Dancer
——————————————————————————–

DR Пики RMS Продолжительность трека
——————————————————————————–
DR7 -0.96 дБ -8.60 дБ 3:53 01-Free Range Human
DR6 -0.68 дБ -8.58 дБ 4:10 02-Arm the Cannon
DR9 -1.18 дБ -12.08 дБ 3:04 03-The Song on the Radio
DR6 -1.03 дБ -8.35 дБ 3:46 04-Lone Documentarian
DR6 -1.00 дБ -9.37 дБ 4:53 05-Watch It Happen
DR7 -0.91 дБ -12.05 дБ 4:48 06-Grave Dancer
DR6 -0.90 дБ -9.21 дБ 3:54 07-Resurrection
DR6 -0.86 дБ -7.83 дБ 4:08 08-Tonight
DR6 -0.91 дБ -10.03 дБ 4:08 09-Vaffanculo, Assassino
DR6 -0.84 дБ -7.84 дБ 2:50 10-The Man Would Speak His Piece
——————————————————————————–

Количество треков: 10
Реальные значения DR: DR6

Частота: 44100 Гц
Каналов: 2
Разрядность: 16
Битрейт: 946 кбит/с
Кодек: FLAC
================================================================================

———————–

DON’T MODIFY THIS FILE

———————–

PERFORMER: auCDtect Task Manager, ver. 1.5.1RC3 build 1.5.1.4
Copyright (c) 2008-2010 y-soft. All rights reserved
http://y-soft.org

ANALYZER: auCDtect: CD records authenticity detector, version 0.8.2
Copyright (c) 2004 Oleg Berngardt. All rights reserved.
Copyright (c) 2004 Alexander Djourik. All rights reserved.

FILE: 10 – The Man Would Speak His Piece.flac
Size: 20226276 Hash: 211657A7645C4AD3DBEB9DF970D33D8D Accuracy: -m8
Conclusion: CDDA 100%
Signature: 5F21AD17985B893ABE46F5D3B2B9CA56CEFB1F4E
FILE: 09 – Vaffanculo, Assassino.flac
Size: 26506854 Hash: CD68454BB582B1AED76C70D78B8E3ABF Accuracy: -m8
Conclusion: CDDA 100%
Signature: BCF069679265D40EC5BCF42701484A2D4E02945A
FILE: 08 – Tonight.flac
Size: 30938316 Hash: 4FF59BBF120832CC98B886B584753D8C Accuracy: -m8
Conclusion: CDDA 100%
Signature: 2BDB799641BF7BEB3D718070B867F2DB4B52F238
FILE: 07 – Resurrection.flac
Size: 24261072 Hash: D0FF3D5FCDF3276C2C661479D0D0E03B Accuracy: -m8
Conclusion: CDDA 100%
Signature: ADB807734F01CDD167407F83F37697F1DD5942E9
FILE: 06 – Grave Dancer.flac
Size: 28365060 Hash: E5CBAF2289048584B8E2970484532223 Accuracy: -m8
Conclusion: CDDA 100%
Signature: 2BB43A283BA66843FBF6D651131ABCC2E35C51F2
FILE: 05 – Watch It Happen.flac
Size: 30326458 Hash: 73B573EC2FAEC762CBA1623AFD6E3970 Accuracy: -m8
Conclusion: CDDA 100%
Signature: 28E1FB855123447C184311F879F47FB631484EEF
FILE: 04 – Lone Documentarian.flac
Size: 25189883 Hash: 4325EF3362112FC04357FD3BA974306C Accuracy: -m8
Conclusion: CDDA 100%
Signature: 148DC33E01B9827041386120F217122D0338385E
FILE: 03 – The Song on the Radio.flac
Size: 17355983 Hash: AE01E0CCE0CD0DD3F2784488DD0FE96B Accuracy: -m8
Conclusion: CDDA 100%
Signature: 97941D3A716079E52B6AF44ABFE5593F60016F08
FILE: 02 – Arm the Cannon.flac
Size: 29633174 Hash: 01C01A854D0C637E7D7CD1CCB09400F1 Accuracy: -m8
Conclusion: CDDA 100%
Signature: 33454A0FB6C8B528FC055CC6823619F109B0F503
FILE: 01 – Free Range Human.flac
Size: 27829816 Hash: 6C5527A2A853832D35DC75DE2DA68FD8 Accuracy: -m8
Conclusion: CDDA 99%
Signature: CD12A9E316BC8C249A845B61A68E09156BF0160F


Leave a Reply

Your email address will not be published. Required fields are marked *

Enter the text from the image below
 

This site uses Akismet to reduce spam. Learn how your comment data is processed.