Beck’s Pistols – Es War Einmal




Artist: Beck’s Pistols
Year: 1995
Genre: Oi
Notes: Discogs
Add. Notes:
Cover incl.: Yes
Encoder: FLAC
Bitrate: ~1000 kBit/s (44.1 kHz/16 Bit/s)
Log & Cue incl.: Yes
Size: 449,07 MB
Password: “slam” (without ” “)


All Downloads/Hosters are compatible

Download 1
Turbobit.net
Rapidgator.net
KatFile.com
UploadRar.com
Download 2
Turbobit.net
Rapidgator.net
KatFile.com
UploadRar.com
Download 3
Turbobit.net
Rapidgator.net
KatFile.com
UploadRar.com

Tracklist:

1 - Sadisten Satans - 1:53
2 - Pöbel Und Gesocks - 2:21
3 - Palmen - 2:53
4 - Lust Am Bösen - 1:37
5 - Circa Ja Bis Nein - 2:17
6 - Land Unter - 4:06
7 - Wo Sind Sie Jetzt? - 2:33
8 - Typ Mit Dem Messer - 2:41
9 - Keule Macht Beule - 2:46
10 - Für Die Ewigkeit - 2:02
11 - Asozial - 5:11
12 - Trabi Reiner - 2:11
13 - Phantasiegedanken - 2:35
14 - Lockruf Der Wildnis - 2:18
15 - Absturz Total - 1:56
16 - Diego Maradona - 2:29
17 - Steh Auf - 2:14
18 - Circa Ja Bis Nein - 2:17
19 - Trabi Reiner - 2:11
20 - Land Unter - 3:02
21 - Typ Mit Dem Messer - 2:53
22 - Lust Am Bösen - 1:23
23 - Circa Ja Bis Nein - 2:05
24 - Für Die Ewigkeit - 1:56
25 - Absturz Total - 1:43
26 - Erektion - 2:30

EAC-Log, CUE-Sheed & NFO:

Click to open spoiler
Exact Audio Copy V0.99 prebeta 5 from 4. May 2009

Отчёт EAC об извлечении, выполненном 3. декабря 2010, 19:50

Beck’s Pistols / Es war einmal…

Дисковод: TEAC DW-552G Adapter: 0 ID: 0

Режим чтения : Достоверность
Использование точного потока : Да
Отключение кэша аудио : Да
Использование указателей C2 : Нет

Коррекция смещения при чтении : 6
Способность читать области Lead-in и Lead-out : Нет
Заполнение пропущенных сэмплов тишиной : Да
Удаление блоков с тишиной в начале и конце : Нет
При вычислениях CRC использовались нулевые сэмплы : Да
Интерфейс : Встроенный Win32-интерфейс для Win NT/2000
Обработка зазоров : Добавлено к предыдущему треку

Выходной формат : Пользовательский кодировщик
Выбранный битрейт : 128 kBit/s
Качество : Высокий
Добавление ID3-тэга : Нет
Утилита сжатия : C:\Program Files\Exact Audio Copy\FLAC\FLAC.EXE
Дополнительные параметры : -8 -V -T “ARTIST=%a” -T “TITLE=%t” -T “ALBUM=%g” -T “DATE=%y” -T “TRACKNUMBER=%n” -T “GENRE=%m” -T “COMMENT=EAC FLAC -8” %s

TOC извлечённого CD

Трек | Старт | Длительность | Начальный сектор | Конечный сектор
———————————————————————
1 | 0:00.30 | 1:53.27 | 30 | 8531
2 | 1:53.57 | 2:21.56 | 8532 | 19162
3 | 4:15.38 | 2:53.44 | 19163 | 32181
4 | 7:09.07 | 1:37.67 | 32182 | 39523
5 | 8:46.74 | 2:17.28 | 39524 | 49826
6 | 11:04.27 | 4:06.62 | 49827 | 68338
7 | 15:11.14 | 2:33.62 | 68339 | 79875
8 | 17:45.01 | 2:41.63 | 79876 | 92013
9 | 20:26.64 | 2:46.26 | 92014 | 104489
10 | 23:13.15 | 2:02.67 | 104490 | 113706
11 | 25:16.07 | 5:11.13 | 113707 | 137044
12 | 30:27.20 | 2:11.36 | 137045 | 146905
13 | 32:38.56 | 2:35.11 | 146906 | 158541
14 | 35:13.67 | 2:18.30 | 158542 | 168921
15 | 37:32.22 | 1:56.56 | 168922 | 177677
16 | 39:29.03 | 2:29.29 | 177678 | 188881
17 | 41:58.32 | 2:14.25 | 188882 | 198956
18 | 44:12.57 | 2:17.37 | 198957 | 209268
19 | 46:30.19 | 2:11.14 | 209269 | 219107
20 | 48:41.33 | 3:02.65 | 219108 | 232822
21 | 51:44.23 | 2:53.19 | 232823 | 245816
22 | 54:37.42 | 1:23.44 | 245817 | 252085
23 | 56:01.11 | 2:05.05 | 252086 | 261465
24 | 58:06.16 | 1:56.67 | 261466 | 270232
25 | 60:03.08 | 1:43.64 | 270233 | 278021
26 | 61:46.72 | 2:30.03 | 278022 | 289274

Трек 1

Имя файла D:\EAC\Beck’s Pistols – 1995 – Es War Einmal\01 Sadisten Satans.wav

Длина предзазора 0:00:02.40

Пиковый уровень 98.3 %
Качество трека 100.0 %
CRC теста 8372772A
CRC копии 8372772A
Трек не обнаружен в базе AccurateRip
Копирование… OK

Трек 2

Имя файла D:\EAC\Beck’s Pistols – 1995 – Es War Einmal\02 Pobel und Gesocks.wav

Пиковый уровень 98.5 %
Качество трека 100.0 %
CRC теста 6B2D09D7
CRC копии 6B2D09D7
Трек не обнаружен в базе AccurateRip
Копирование… OK

Трек 3

Имя файла D:\EAC\Beck’s Pistols – 1995 – Es War Einmal\03 Palmen.wav

Пиковый уровень 98.1 %
Качество трека 99.9 %
CRC теста 2DF8BE36
CRC копии 2DF8BE36
Трек не обнаружен в базе AccurateRip
Копирование… OK

Трек 4

Имя файла D:\EAC\Beck’s Pistols – 1995 – Es War Einmal\04 Lust am Bosen.wav

Пиковый уровень 98.5 %
Качество трека 99.7 %
CRC теста BB6DFAC1
CRC копии BB6DFAC1
Трек не обнаружен в базе AccurateRip
Копирование… OK

Трек 5

Имя файла D:\EAC\Beck’s Pistols – 1995 – Es War Einmal\05 Circa ja bis nein.wav

Пиковый уровень 98.8 %
Качество трека 99.7 %
CRC теста 22C7285F
CRC копии 22C7285F
Трек не обнаружен в базе AccurateRip
Копирование… OK

Трек 6

Имя файла D:\EAC\Beck’s Pistols – 1995 – Es War Einmal\06 Land unter.wav

Пиковый уровень 99.0 %
Качество трека 99.8 %
CRC теста DA121775
CRC копии DA121775
Трек не обнаружен в базе AccurateRip
Копирование… OK

Трек 7

Имя файла D:\EAC\Beck’s Pistols – 1995 – Es War Einmal\07 Wo sind sie jetzt .wav

Пиковый уровень 98.0 %
Качество трека 99.9 %
CRC теста 2F297D8A
CRC копии 2F297D8A
Трек не обнаружен в базе AccurateRip
Копирование… OK

Трек 8

Имя файла D:\EAC\Beck’s Pistols – 1995 – Es War Einmal\08 Typ mit dem Messer.wav

Пиковый уровень 98.5 %
Качество трека 100.0 %
CRC теста 34E487BC
CRC копии 34E487BC
Трек не обнаружен в базе AccurateRip
Копирование… OK

Трек 9

Имя файла D:\EAC\Beck’s Pistols – 1995 – Es War Einmal\09 Keule macht Beule.wav

Пиковый уровень 98.4 %
Качество трека 99.9 %
CRC теста 543E9A35
CRC копии 543E9A35
Трек не обнаружен в базе AccurateRip
Копирование… OK

Трек 10

Имя файла D:\EAC\Beck’s Pistols – 1995 – Es War Einmal\10 Fur die Ewigkeit.wav

Пиковый уровень 98.6 %
Качество трека 100.0 %
CRC теста ECB469B1
CRC копии ECB469B1
Трек не обнаружен в базе AccurateRip
Копирование… OK

Трек 11

Имя файла D:\EAC\Beck’s Pistols – 1995 – Es War Einmal\11 Asozial.wav

Пиковый уровень 98.8 %
Качество трека 99.9 %
CRC теста E808B187
CRC копии E808B187
Трек не обнаружен в базе AccurateRip
Копирование… OK

Трек 12

Имя файла D:\EAC\Beck’s Pistols – 1995 – Es War Einmal\12 Trabi Rainer.wav

Пиковый уровень 99.1 %
Качество трека 99.9 %
CRC теста A3F16776
CRC копии A3F16776
Трек не обнаружен в базе AccurateRip
Копирование… OK

Трек 13

Имя файла D:\EAC\Beck’s Pistols – 1995 – Es War Einmal\13 Phantasiegedanken.wav

Пиковый уровень 98.5 %
Качество трека 100.0 %
CRC теста 5EECFF9E
CRC копии 5EECFF9E
Трек не обнаружен в базе AccurateRip
Копирование… OK

Трек 14

Имя файла D:\EAC\Beck’s Pistols – 1995 – Es War Einmal\14 Lockruf der Wildnis.wav

Пиковый уровень 98.5 %
Качество трека 100.0 %
CRC теста 28D2824D
CRC копии 28D2824D
Трек не обнаружен в базе AccurateRip
Копирование… OK

Трек 15

Имя файла D:\EAC\Beck’s Pistols – 1995 – Es War Einmal\15 Absturz total.wav

Пиковый уровень 85.7 %
Качество трека 100.0 %
CRC теста 8DE7F7FD
CRC копии 8DE7F7FD
Трек не обнаружен в базе AccurateRip
Копирование… OK

Трек 16

Имя файла D:\EAC\Beck’s Pistols – 1995 – Es War Einmal\16 Diego Maradona.wav

Пиковый уровень 88.3 %
Качество трека 100.0 %
CRC теста 8F7FFA3C
CRC копии 8F7FFA3C
Трек не обнаружен в базе AccurateRip
Копирование… OK

Трек 17

Имя файла D:\EAC\Beck’s Pistols – 1995 – Es War Einmal\17 Steh auf.wav

Пиковый уровень 98.0 %
Качество трека 99.9 %
CRC теста 459B6784
CRC копии 459B6784
Трек не обнаружен в базе AccurateRip
Копирование… OK

Трек 18

Имя файла D:\EAC\Beck’s Pistols – 1995 – Es War Einmal\18 Circa ja bis nein.wav

Пиковый уровень 98.6 %
Качество трека 99.9 %
CRC теста 28750332
CRC копии 28750332
Трек не обнаружен в базе AccurateRip
Копирование… OK

Трек 19

Имя файла D:\EAC\Beck’s Pistols – 1995 – Es War Einmal\19 Trabi Rainer.wav

Пиковый уровень 98.7 %
Качество трека 99.9 %
CRC теста 222845E4
CRC копии 222845E4
Трек не обнаружен в базе AccurateRip
Копирование… OK

Трек 20

Имя файла D:\EAC\Beck’s Pistols – 1995 – Es War Einmal\20 Land unter.wav

Пиковый уровень 98.0 %
Качество трека 100.0 %
CRC теста F9DF5829
CRC копии F9DF5829
Трек не обнаружен в базе AccurateRip
Копирование… OK

Трек 21

Имя файла D:\EAC\Beck’s Pistols – 1995 – Es War Einmal\21 Typ mit dem Messer.wav

Пиковый уровень 98.0 %
Качество трека 100.0 %
CRC теста F7F59D99
CRC копии F7F59D99
Трек не обнаружен в базе AccurateRip
Копирование… OK

Трек 22

Имя файла D:\EAC\Beck’s Pistols – 1995 – Es War Einmal\22 Lust am Bosen.wav

Пиковый уровень 98.0 %
Качество трека 99.8 %
CRC теста 39259A9D
CRC копии 39259A9D
Трек не обнаружен в базе AccurateRip
Копирование… OK

Трек 23

Имя файла D:\EAC\Beck’s Pistols – 1995 – Es War Einmal\23 Circa ja bis nein.wav

Пиковый уровень 98.0 %
Качество трека 100.0 %
CRC теста A4AB1B82
CRC копии A4AB1B82
Трек не обнаружен в базе AccurateRip
Копирование… OK

Трек 24

Имя файла D:\EAC\Beck’s Pistols – 1995 – Es War Einmal\24 Fur die Ewigkeit.wav

Пиковый уровень 98.1 %
Качество трека 99.9 %
CRC теста E1E774FB
CRC копии E1E774FB
Трек не обнаружен в базе AccurateRip
Копирование… OK

Трек 25

Имя файла D:\EAC\Beck’s Pistols – 1995 – Es War Einmal\25 Absturz total.wav

Пиковый уровень 98.0 %
Качество трека 100.0 %
CRC теста B7B91BC2
CRC копии B7B91BC2
Трек не обнаружен в базе AccurateRip
Копирование… OK

Трек 26

Имя файла D:\EAC\Beck’s Pistols – 1995 – Es War Einmal\26 Erektion.wav

Пиковый уровень 98.7 %
Качество трека 99.8 %
CRC теста 0B966237
CRC копии 0B966237
Трек не обнаружен в базе AccurateRip
Копирование… OK

Ни одного трека нет в базе AccurateRip

Ошибок не произошло

Конец отчёта

REM GENRE Punk/Oi!
REM DATE 1995
REM DISCID 740F111A
REM COMMENT “ExactAudioCopy v0.99pb5”
PERFORMER “Beck’s Pistols”
TITLE “Es war einmal…”
FILE “01 Sadisten Satans.wav” WAVE
TRACK 01 AUDIO
TITLE “Sadisten Satans”
PERFORMER “Beck’s Pistols”
PREGAP 00:00:30
INDEX 01 00:00:00
FILE “02 Pobel und Gesocks.wav” WAVE
TRACK 02 AUDIO
TITLE “Pobel und Gesocks”
PERFORMER “Beck’s Pistols”
INDEX 01 00:00:00
FILE “03 Palmen.wav” WAVE
TRACK 03 AUDIO
TITLE “Palmen”
PERFORMER “Beck’s Pistols”
INDEX 01 00:00:00
FILE “04 Lust am Bosen.wav” WAVE
TRACK 04 AUDIO
TITLE “Lust am Bosen”
PERFORMER “Beck’s Pistols”
INDEX 01 00:00:00
FILE “05 Circa ja bis nein.wav” WAVE
TRACK 05 AUDIO
TITLE “Circa ja bis nein”
PERFORMER “Beck’s Pistols”
INDEX 01 00:00:00
FILE “06 Land unter.wav” WAVE
TRACK 06 AUDIO
TITLE “Land unter”
PERFORMER “Beck’s Pistols”
INDEX 01 00:00:00
FILE “07 Wo sind sie jetzt .wav” WAVE
TRACK 07 AUDIO
TITLE “Wo sind sie jetzt?”
PERFORMER “Beck’s Pistols”
INDEX 01 00:00:00
FILE “08 Typ mit dem Messer.wav” WAVE
TRACK 08 AUDIO
TITLE “Typ mit dem Messer”
PERFORMER “Beck’s Pistols”
INDEX 01 00:00:00
FILE “09 Keule macht Beule.wav” WAVE
TRACK 09 AUDIO
TITLE “Keule macht Beule”
PERFORMER “Beck’s Pistols”
INDEX 01 00:00:00
FILE “10 Fur die Ewigkeit.wav” WAVE
TRACK 10 AUDIO
TITLE “Fur die Ewigkeit”
PERFORMER “Beck’s Pistols”
INDEX 01 00:00:00
FILE “11 Asozial.wav” WAVE
TRACK 11 AUDIO
TITLE “Asozial”
PERFORMER “Beck’s Pistols”
INDEX 01 00:00:00
FILE “12 Trabi Rainer.wav” WAVE
TRACK 12 AUDIO
TITLE “Trabi Rainer”
PERFORMER “Beck’s Pistols”
INDEX 01 00:00:00
FILE “13 Phantasiegedanken.wav” WAVE
TRACK 13 AUDIO
TITLE “Phantasiegedanken”
PERFORMER “Beck’s Pistols”
INDEX 01 00:00:00
FILE “14 Lockruf der Wildnis.wav” WAVE
TRACK 14 AUDIO
TITLE “Lockruf der Wildnis”
PERFORMER “Beck’s Pistols”
INDEX 01 00:00:00
FILE “15 Absturz total.wav” WAVE
TRACK 15 AUDIO
TITLE “Absturz total”
PERFORMER “Beck’s Pistols”
INDEX 01 00:00:00
FILE “16 Diego Maradona.wav” WAVE
TRACK 16 AUDIO
TITLE “Diego Maradona”
PERFORMER “Beck’s Pistols”
INDEX 01 00:00:00
FILE “17 Steh auf.wav” WAVE
TRACK 17 AUDIO
TITLE “Steh auf”
PERFORMER “Beck’s Pistols”
INDEX 01 00:00:00
FILE “18 Circa ja bis nein.wav” WAVE
TRACK 18 AUDIO
TITLE “Circa ja bis nein”
PERFORMER “Beck’s Pistols”
INDEX 01 00:00:00
FILE “19 Trabi Rainer.wav” WAVE
TRACK 19 AUDIO
TITLE “Trabi Rainer”
PERFORMER “Beck’s Pistols”
INDEX 01 00:00:00
FILE “20 Land unter.wav” WAVE
TRACK 20 AUDIO
TITLE “Land unter”
PERFORMER “Beck’s Pistols”
INDEX 01 00:00:00
FILE “21 Typ mit dem Messer.wav” WAVE
TRACK 21 AUDIO
TITLE “Typ mit dem Messer”
PERFORMER “Beck’s Pistols”
INDEX 01 00:00:00
FILE “22 Lust am Bosen.wav” WAVE
TRACK 22 AUDIO
TITLE “Lust am Bosen”
PERFORMER “Beck’s Pistols”
INDEX 01 00:00:00
FILE “23 Circa ja bis nein.wav” WAVE
TRACK 23 AUDIO
TITLE “Circa ja bis nein”
PERFORMER “Beck’s Pistols”
INDEX 01 00:00:00
FILE “24 Fur die Ewigkeit.wav” WAVE
TRACK 24 AUDIO
TITLE “Fur die Ewigkeit”
PERFORMER “Beck’s Pistols”
INDEX 01 00:00:00
FILE “25 Absturz total.wav” WAVE
TRACK 25 AUDIO
TITLE “Absturz total”
PERFORMER “Beck’s Pistols”
INDEX 01 00:00:00
FILE “26 Erektion.wav” WAVE
TRACK 26 AUDIO
TITLE “Erektion”
PERFORMER “Beck’s Pistols”
INDEX 01 00:00:00


Leave a Reply

Your email address will not be published. Required fields are marked *

This site uses Akismet to reduce spam. Learn how your comment data is processed.