Beatsteaks – Kanonen auf Spatzen




Artist: Beatsteaks
Year: 2008
Genre: Punk
Notes: Discogs
Add. Notes:
Encoder: FLAC
Bitrate: ~1000 kBit/s (VBR)
Size: 678,22 MB
Password: “slam” (without ” “)


Tracklist:

CD 1:
1	As I Please	3:12
2	Monster 2:29
3	Atomic Love	2:52
4	Big Attack (Laut)	3:23
5	Cut Off The Top	3:49
6	Hail To The Freaks	4:11
7	I Don't Care As Long As You Sing	4:18
8	Jane Became Insane	6:11
9	E-G-O	3:23
10	Loyal To None	1:39
11	Hey Du 4:04
12	Frieda & Die Bomben 3:21
13	Summer	3:50
14	Let Me In	5:10

CD 2:
1	Panic	3:00
2	Not Ready To Rock	1:23
3	Demons Galore	3:23
4	Sharp, Cool & Collected	2:06
5	Meantime	2:21
6	Hello There 1:31
7	To Be Strong	3:22
8	What's Coming Over You	3:26
9	Hello Joe	3:36
10	Shiny Shoes	3:02
11	Soljanka	3:54
12	Soothe Me	2:55
13	Big Attack (Leise)	2:13
14	Hand In Hand	3:40
15	Schlecht	2:57

Click to open spoiler
Exact Audio Copy V0.99 prebeta 5 from 4. May 2009

EAC extraction logfile from 7. October 2009, 23:42

Beatsteaks / Kanonen auf Spatzen

Used drive : TSSTcorpDVD-ROM SH-D163A Adapter: 1 ID: 0

Read mode : Secure
Utilize accurate stream : Yes
Defeat audio cache : Yes
Make use of C2 pointers : No

Read offset correction : 6
Overread into Lead-In and Lead-Out : No
Fill up missing offset samples with silence : Yes
Delete leading and trailing silent blocks : No
Null samples used in CRC calculations : Yes
Used interface : Installed external ASPI interface
Gap handling : Appended to previous track

Used output format : User Defined Encoder
Selected bitrate : 192 kBit/s
Quality : High
Add ID3 tag : No
Command line compressor : D:\Programme\Exact Audio Copy\Flac\flac.exe
Additional command line options : -T “artist=%a” -T “title=%t” -T “album=%g” -T “date=%y” -T “tracknumber=%n” -8 -e -p %s

TOC of the extracted CD

Track | Start | Length | Start sector | End sector
———————————————————
1 | 0:00.00 | 3:12.62 | 0 | 14461
2 | 3:12.62 | 2:29.51 | 14462 | 25687
3 | 5:42.38 | 2:52.19 | 25688 | 38606
4 | 8:34.57 | 3:23.41 | 38607 | 53872
5 | 11:58.23 | 3:49.23 | 53873 | 71070
6 | 15:47.46 | 4:11.62 | 71071 | 89957
7 | 19:59.33 | 4:18.26 | 89958 | 109333
8 | 24:17.59 | 6:11.42 | 109334 | 137200
9 | 30:29.26 | 3:23.16 | 137201 | 152441
10 | 33:52.42 | 1:39.55 | 152442 | 159921
11 | 35:32.22 | 4:04.43 | 159922 | 178264
12 | 39:36.65 | 3:21.41 | 178265 | 193380
13 | 42:58.31 | 3:50.52 | 193381 | 210682
14 | 46:49.08 | 5:10.35 | 210683 | 233967

Track 1

Filename D:\Eigene Dateien\Musik\Kanonen auf Spatzen\1.01. As I Please.wav

Pre-gap length 0:00:02.00

Peak level 100.0 %
Track quality 100.0 %
Test CRC F0072329
Copy CRC F0072329
Accurately ripped (confidence 18) [55ED8165]
Copy OK

Track 2

Filename D:\Eigene Dateien\Musik\Kanonen auf Spatzen\1.02. Monster.wav

Peak level 100.0 %
Track quality 100.0 %
Test CRC 3B6BD89E
Copy CRC 3B6BD89E
Accurately ripped (confidence 19) [8080255F]
Copy OK

Track 3

Filename D:\Eigene Dateien\Musik\Kanonen auf Spatzen\1.03. Atomic Love.wav

Peak level 100.0 %
Track quality 100.0 %
Test CRC 635664C3
Copy CRC 635664C3
Accurately ripped (confidence 19) [241BBDED]
Copy OK

Track 4

Filename D:\Eigene Dateien\Musik\Kanonen auf Spatzen\1.04. Big Attack (Laut).wav

Peak level 100.0 %
Track quality 99.9 %
Test CRC 6A675BE0
Copy CRC 6A675BE0
Accurately ripped (confidence 19) [030B16B5]
Copy OK

Track 5

Filename D:\Eigene Dateien\Musik\Kanonen auf Spatzen\1.05. Cut Off the Top.wav

Peak level 100.0 %
Track quality 100.0 %
Test CRC F0252D32
Copy CRC F0252D32
Accurately ripped (confidence 19) [C4E694B0]
Copy OK

Track 6

Filename D:\Eigene Dateien\Musik\Kanonen auf Spatzen\1.06. Hail to the Freaks.wav

Peak level 99.8 %
Track quality 100.0 %
Test CRC 2FEF3BD6
Copy CRC 2FEF3BD6
Accurately ripped (confidence 19) [E19E7873]
Copy OK

Track 7

Filename D:\Eigene Dateien\Musik\Kanonen auf Spatzen\1.07. I Don’t Care as Long as You Sing.wav

Peak level 99.8 %
Track quality 99.9 %
Test CRC 52BEF2BE
Copy CRC 52BEF2BE
Accurately ripped (confidence 19) [7680DEB6]
Copy OK

Track 8

Filename D:\Eigene Dateien\Musik\Kanonen auf Spatzen\1.08. Jane Became Insane.wav

Peak level 100.0 %
Track quality 99.9 %
Test CRC 0AFB6F3E
Copy CRC 0AFB6F3E
Accurately ripped (confidence 18) [2D2093D8]
Copy OK

Track 9

Filename D:\Eigene Dateien\Musik\Kanonen auf Spatzen\1.09. E-G-O.wav

Peak level 100.0 %
Track quality 99.9 %
Test CRC 91A55762
Copy CRC 91A55762
Accurately ripped (confidence 19) [A8FADE47]
Copy OK

Track 10

Filename D:\Eigene Dateien\Musik\Kanonen auf Spatzen\1.10. Loyal to None.wav

Peak level 100.0 %
Track quality 100.0 %
Test CRC 4D65E013
Copy CRC 4D65E013
Accurately ripped (confidence 19) [3475B6DD]
Copy OK

Track 11

Filename D:\Eigene Dateien\Musik\Kanonen auf Spatzen\1.11. Hey Du.wav

Peak level 100.0 %
Track quality 100.0 %
Test CRC B5860A2C
Copy CRC B5860A2C
Accurately ripped (confidence 19) [DCAC93B4]
Copy OK

Track 12

Filename D:\Eigene Dateien\Musik\Kanonen auf Spatzen\1.12. Frieda & die Bomben.wav

Peak level 100.0 %
Track quality 99.9 %
Test CRC 3A84B5A4
Copy CRC 3A84B5A4
Accurately ripped (confidence 19) [6A34B9C1]
Copy OK

Track 13

Filename D:\Eigene Dateien\Musik\Kanonen auf Spatzen\1.13. Summer.wav

Peak level 100.0 %
Track quality 100.0 %
Test CRC 677C9C2A
Copy CRC 677C9C2A
Accurately ripped (confidence 19) [50945C9E]
Copy OK

Track 14

Filename D:\Eigene Dateien\Musik\Kanonen auf Spatzen\1.14. Let Me In.wav

Peak level 100.0 %
Track quality 99.9 %
Test CRC C11C5077
Copy CRC C11C5077
Accurately ripped (confidence 19) [224C53DE]
Copy OK

All tracks accurately ripped

No errors occurred

End of status report

Exact Audio Copy V0.99 prebeta 5 from 4. May 2009

EAC extraction logfile from 8. October 2009, 0:09

Beatsteaks / Kanonen auf Spatzen

Used drive : TSSTcorpDVD-ROM SH-D163A Adapter: 1 ID: 0

Read mode : Secure
Utilize accurate stream : Yes
Defeat audio cache : Yes
Make use of C2 pointers : No

Read offset correction : 6
Overread into Lead-In and Lead-Out : No
Fill up missing offset samples with silence : Yes
Delete leading and trailing silent blocks : No
Null samples used in CRC calculations : Yes
Used interface : Installed external ASPI interface
Gap handling : Appended to previous track

Used output format : User Defined Encoder
Selected bitrate : 192 kBit/s
Quality : High
Add ID3 tag : No
Command line compressor : D:\Programme\Exact Audio Copy\Flac\flac.exe
Additional command line options : -T “artist=%a” -T “title=%t” -T “album=%g” -T “date=%y” -T “tracknumber=%n” -8 -e -p %s

TOC of the extracted CD

Track | Start | Length | Start sector | End sector
———————————————————
1 | 0:00.00 | 3:00.74 | 0 | 13573
2 | 3:00.74 | 1:23.38 | 13574 | 19836
3 | 4:24.37 | 3:23.38 | 19837 | 35099
4 | 7:48.00 | 2:06.60 | 35100 | 44609
5 | 9:54.60 | 2:22.11 | 44610 | 55270
6 | 12:16.71 | 1:31.35 | 55271 | 62130
7 | 13:48.31 | 3:22.74 | 62131 | 77354
8 | 17:11.30 | 3:26.42 | 77355 | 92846
9 | 20:37.72 | 3:37.07 | 92847 | 109128
10 | 24:15.04 | 3:02.31 | 109129 | 122809
11 | 27:17.35 | 3:54.62 | 122810 | 140421
12 | 31:12.22 | 2:55.49 | 140422 | 153595
13 | 34:07.71 | 2:13.46 | 153596 | 163616
14 | 36:21.42 | 6:38.05 | 163617 | 193471

Track 1

Filename D:\Eigene Dateien\Musik\Kanonen auf Spatzen\2.01. Panic.wav

Pre-gap length 0:00:02.00

Peak level 100.0 %
Track quality 99.9 %
Test CRC FAC5283E
Copy CRC FAC5283E
Accurately ripped (confidence 15) [2E267832]
Copy OK

Track 2

Filename D:\Eigene Dateien\Musik\Kanonen auf Spatzen\2.02. Not Ready to Rock.wav

Peak level 100.0 %
Track quality 100.0 %
Test CRC 4FF53CB3
Copy CRC 4FF53CB3
Accurately ripped (confidence 17) [507AA4ED]
Copy OK

Track 3

Filename D:\Eigene Dateien\Musik\Kanonen auf Spatzen\2.03. Demons Galore.wav

Peak level 100.0 %
Track quality 100.0 %
Test CRC E7E4860A
Copy CRC E7E4860A
Accurately ripped (confidence 17) [913BA893]
Copy OK

Track 4

Filename D:\Eigene Dateien\Musik\Kanonen auf Spatzen\2.04. Sharp, Cool & Collected.wav

Peak level 100.0 %
Track quality 100.0 %
Test CRC 8F83F74E
Copy CRC 8F83F74E
Accurately ripped (confidence 17) [3D00BC16]
Copy OK

Track 5

Filename D:\Eigene Dateien\Musik\Kanonen auf Spatzen\2.05. Meantime.wav

Peak level 100.0 %
Track quality 100.0 %
Test CRC DCD203FE
Copy CRC DCD203FE
Accurately ripped (confidence 17) [9CCC025A]
Copy OK

Track 6

Filename D:\Eigene Dateien\Musik\Kanonen auf Spatzen\2.06. Hello There.wav

Peak level 100.0 %
Track quality 100.0 %
Test CRC DCB06EDC
Copy CRC DCB06EDC
Accurately ripped (confidence 17) [C0E23530]
Copy OK

Track 7

Filename D:\Eigene Dateien\Musik\Kanonen auf Spatzen\2.07. To Be Strong.wav

Peak level 100.0 %
Track quality 100.0 %
Test CRC 21867F73
Copy CRC 21867F73
Accurately ripped (confidence 17) [EC5E5B15]
Copy OK

Track 8

Filename D:\Eigene Dateien\Musik\Kanonen auf Spatzen\2.08. What’s Coming Over You.wav

Peak level 100.0 %
Track quality 99.9 %
Test CRC D46F59BD
Copy CRC D46F59BD
Accurately ripped (confidence 17) [3E35ADA4]
Copy OK

Track 9

Filename D:\Eigene Dateien\Musik\Kanonen auf Spatzen\2.09. Hello Joe.wav

Peak level 100.0 %
Track quality 100.0 %
Test CRC D04ED985
Copy CRC D04ED985
Accurately ripped (confidence 17) [D0AF9328]
Copy OK

Track 10

Filename D:\Eigene Dateien\Musik\Kanonen auf Spatzen\2.10. Shiny Shoes.wav

Peak level 100.0 %
Track quality 100.0 %
Test CRC B78AFA9B
Copy CRC B78AFA9B
Accurately ripped (confidence 17) [8E4DAC54]
Copy OK

Track 11

Filename D:\Eigene Dateien\Musik\Kanonen auf Spatzen\2.11. Soljanka.wav

Peak level 100.0 %
Track quality 100.0 %
Test CRC 01D818A0
Copy CRC 01D818A0
Accurately ripped (confidence 16) [2B35D98D]
Copy OK

Track 12

Filename D:\Eigene Dateien\Musik\Kanonen auf Spatzen\2.12. Soothe Me.wav

Peak level 100.0 %
Track quality 99.9 %
Test CRC BE4A9137
Copy CRC BE4A9137
Accurately ripped (confidence 16) [6F7288E5]
Copy OK

Track 13

Filename D:\Eigene Dateien\Musik\Kanonen auf Spatzen\2.13. Big Attack (Leise).wav

Peak level 99.9 %
Track quality 100.0 %
Test CRC 36F0E568
Copy CRC 36F0E568
Accurately ripped (confidence 17) [4B9A9FBE]
Copy OK

Track 14

Filename D:\Eigene Dateien\Musik\Kanonen auf Spatzen\2.14. Hand in Hand.wav

Peak level 100.0 %
Track quality 100.0 %
Test CRC 2DCD280C
Copy CRC 2DCD280C
Accurately ripped (confidence 17) [63E59E3C]
Copy OK

All tracks accurately ripped

No errors occurred

End of status report

—————————————————————————–

REM DATE 2008
REM DISCID C20A130E
REM CATALOG Warner Music (Germany) 5051442-8172-2-5
CATALOG 5051442817225
PERFORMER “Beatsteaks”
TITLE “Kanonen auf Spatzen”
FILE “2.01. Panic.wav” WAVE
TRACK 01 AUDIO
TITLE “Panic”
PERFORMER “Beatsteaks”
ISRC DEA620800182
INDEX 01 00:00:00
FILE “2.02. Not Ready to Rock.wav” WAVE
TRACK 02 AUDIO
TITLE “Not Ready to Rock”
PERFORMER “Beatsteaks”
ISRC DEA620800183
INDEX 01 00:00:00
FILE “2.03. Demons Galore.wav” WAVE
TRACK 03 AUDIO
TITLE “Demons Galore”
PERFORMER “Beatsteaks”
ISRC DEA620800184
INDEX 01 00:00:00
FILE “2.04. Sharp, Cool & Collected.wav” WAVE
TRACK 04 AUDIO
TITLE “Sharp, Cool & Collected”
PERFORMER “Beatsteaks”
ISRC DEA620800185
INDEX 01 00:00:00
FILE “2.05. Meantime.wav” WAVE
TRACK 05 AUDIO
TITLE “Meantime”
PERFORMER “Beatsteaks”
ISRC DEA620800185
INDEX 01 00:00:00
FILE “2.06. Hello There.wav” WAVE
TRACK 06 AUDIO
TITLE “Hello There”
PERFORMER “Beatsteaks”
ISRC DEA620800187
INDEX 01 00:00:00
FILE “2.07. To Be Strong.wav” WAVE
TRACK 07 AUDIO
TITLE “To Be Strong”
PERFORMER “Beatsteaks”
ISRC DEA620800188
INDEX 01 00:00:00
FILE “2.08. What’s Coming Over You.wav” WAVE
TRACK 08 AUDIO
TITLE “What’s Coming Over You”
PERFORMER “Beatsteaks”
ISRC DEA620800188
INDEX 01 00:00:00
FILE “2.09. Hello Joe.wav” WAVE
TRACK 09 AUDIO
TITLE “Hello Joe”
PERFORMER “Beatsteaks”
ISRC DEA620800189
INDEX 01 00:00:00
FILE “2.10. Shiny Shoes.wav” WAVE
TRACK 10 AUDIO
TITLE “Shiny Shoes”
PERFORMER “Beatsteaks”
ISRC DEA620800191
INDEX 01 00:00:00
FILE “2.11. Soljanka.wav” WAVE
TRACK 11 AUDIO
TITLE “Soljanka”
PERFORMER “Beatsteaks”
ISRC DEA620800192
INDEX 01 00:00:00
FILE “2.12. Soothe Me.wav” WAVE
TRACK 12 AUDIO
TITLE “Soothe Me”
PERFORMER “Beatsteaks”
ISRC DEA620800192
INDEX 01 00:00:00
FILE “2.13. Big Attack (Leise).wav” WAVE
TRACK 13 AUDIO
TITLE “Big Attack (Leise)”
PERFORMER “Beatsteaks”
ISRC DEA620800194
INDEX 01 00:00:00
FILE “2.14. Hand in Hand.wav” WAVE
TRACK 14 AUDIO
TITLE “Hand in Hand”
PERFORMER “Beatsteaks”
ISRC DEA620800194
INDEX 01 00:00:00

REM DATE 2008
REM DISCID AC0C2F0E
REM CATALOG Warner Music (Germany) 5051442-8172-2-5
CATALOG 5051442817225
PERFORMER “Beatsteaks”
TITLE “Kanonen auf Spatzen”
FILE “1.01. As I Please.wav” WAVE
TRACK 01 AUDIO
TITLE “As I Please”
PERFORMER “Beatsteaks”
ISRC DEA620800168
INDEX 01 00:00:00
FILE “1.02. Monster.wav” WAVE
TRACK 02 AUDIO
TITLE “Monster”
PERFORMER “Beatsteaks”
ISRC DEA620800168
INDEX 01 00:00:00
FILE “1.03. Atomic Love.wav” WAVE
TRACK 03 AUDIO
TITLE “Atomic Love”
PERFORMER “Beatsteaks”
ISRC DEA620800170
INDEX 01 00:00:00
FILE “1.04. Big Attack (Laut).wav” WAVE
TRACK 04 AUDIO
TITLE “Big Attack (Laut)”
PERFORMER “Beatsteaks”
ISRC DEA620800171
INDEX 01 00:00:00
FILE “1.05. Cut Off the Top.wav” WAVE
TRACK 05 AUDIO
TITLE “Cut Off the Top”
PERFORMER “Beatsteaks”
ISRC DEA620800172
INDEX 01 00:00:00
FILE “1.06. Hail to the Freaks.wav” WAVE
TRACK 06 AUDIO
TITLE “Hail to the Freaks”
PERFORMER “Beatsteaks”
ISRC DEA620800167
INDEX 01 00:00:00
FILE “1.07. I Don’t Care as Long as You Sing.wav” WAVE
TRACK 07 AUDIO
TITLE “I Don’t Care as Long as You Sing”
PERFORMER “Beatsteaks”
ISRC DEA620800173
INDEX 01 00:00:00
FILE “1.08. Jane Became Insane.wav” WAVE
TRACK 08 AUDIO
TITLE “Jane Became Insane”
PERFORMER “Beatsteaks”
ISRC DEA620800174
INDEX 01 00:00:00
FILE “1.09. E-G-O.wav” WAVE
TRACK 09 AUDIO
TITLE “E-G-O”
PERFORMER “Beatsteaks”
ISRC DEA620800175
INDEX 01 00:00:00
FILE “1.10. Loyal to None.wav” WAVE
TRACK 10 AUDIO
TITLE “Loyal to None”
PERFORMER “Beatsteaks”
ISRC DEA620800177
INDEX 01 00:00:00
FILE “1.11. Hey Du.wav” WAVE
TRACK 11 AUDIO
TITLE “Hey Du”
PERFORMER “Beatsteaks”
ISRC DEA620800177
INDEX 01 00:00:00
FILE “1.12. Frieda & die Bomben.wav” WAVE
TRACK 12 AUDIO
TITLE “Frieda & die Bomben”
PERFORMER “Beatsteaks”
ISRC DEA620800179
INDEX 01 00:00:00
FILE “1.13. Summer.wav” WAVE
TRACK 13 AUDIO
TITLE “Summer”
PERFORMER “Beatsteaks”
ISRC DEA620800180
INDEX 01 00:00:00
FILE “1.14. Let Me In.wav” WAVE
TRACK 14 AUDIO
TITLE “Let Me In”
PERFORMER “Beatsteaks”
ISRC DEA620800180
INDEX 01 00:00:00

Leave a Reply

Your email address will not be published. Required fields are marked *

This site uses Akismet to reduce spam. Learn how your comment data is processed.