BAP – X Für ‘e U




Artist: BAP
Year: 1990
Genre: Rock
Notes: Discogs
Add. Notes:
Cover incl.: Yes
Encoder: FLAC
Bitrate: ~900 kBit/s (44.1 kHz/16 Bit/s)
Log & Cue incl.: Yes
Size: 344,89 MB
Password: “slam” (without ” “)


All Downloads/Hosters are compatible

Download 1
Turbobit.net
NitroFlare.com
KatFile.com
Rapidgator.net
Download 2
Turbobit.net
NitroFlare.com
KatFile.com
Rapidgator.net

Tracklist:

1  - Denn Mer Sinn Widder Wer  - 5:23
2  - Vis A Vis  - 4:55
3  - Bleifooss  - 5:10
4  - Alles Em Lot  - 5:00
5  - Happy End  - 4:15
6  - Freio  - 4:52
7  - Sie Määt Süchtig  - 4:16
8  - Watt, Usser Rock'N'Roll?  - 5:15
9  - Domohls  - 4:52
10  - Griefbar Noh  - 5:32
11  - Land En Sicht  - 5:28

EAC-Log, CUE-Sheed & NFO:

Click to open spoiler
Exact Audio Copy V0.99 prebeta 5 from 4. May 2009

EAC extraction logfile from 13. December 2011, 13:50

BAP / X Für’e U

Used drive : PIONEER DVD RW DVR-109 Adapter: 0 ID: 0

Read mode : Secure
Utilize accurate stream : Yes
Defeat audio cache : Yes
Make use of C2 pointers : No

Read offset correction : 48
Overread into Lead-In and Lead-Out : No
Fill up missing offset samples with silence : Yes
Delete leading and trailing silent blocks : No
Null samples used in CRC calculations : Yes
Used interface : Installed external ASPI interface

Used output format : Internal WAV Routines
Sample format : 44.100 Hz; 16 Bit; Stereo

TOC of the extracted CD

Track | Start | Length | Start sector | End sector
———————————————————
1 | 0:00.00 | 5:28.65 | 0 | 24664
2 | 5:28.65 | 4:59.45 | 24665 | 47134
3 | 10:28.35 | 5:17.42 | 47135 | 70951
4 | 15:46.02 | 5:03.00 | 70952 | 93676
5 | 20:49.02 | 4:18.35 | 93677 | 113061
6 | 25:07.37 | 4:56.23 | 113062 | 135284
7 | 30:03.60 | 4:18.12 | 135285 | 154646
8 | 34:21.72 | 5:19.20 | 154647 | 178591
9 | 39:41.17 | 4:56.73 | 178592 | 200864
10 | 44:38.15 | 5:35.25 | 200865 | 226014
11 | 50:13.40 | 5:31.37 | 226015 | 250876

Range status and errors

Selected range

Filename G:\Audio\BAP\BAP – X Fuer’e U.wav

Peak level 97.2 %
Range quality 100.0 %
Test CRC 6DE98EC3
Copy CRC 6DE98EC3
Copy OK

No errors occurred

AccurateRip summary

Track 1 accurately ripped (confidence 130) [36525573]
Track 2 accurately ripped (confidence 132) [A95C5C8A]
Track 3 accurately ripped (confidence 132) [BA606275]
Track 4 accurately ripped (confidence 132) [AE31BEDD]
Track 5 accurately ripped (confidence 130) [6FA199C0]
Track 6 accurately ripped (confidence 132) [B83296D1]
Track 7 accurately ripped (confidence 132) [C7D4FD46]
Track 8 accurately ripped (confidence 132) [0F202DF0]
Track 9 accurately ripped (confidence 132) [8F718DD4]
Track 10 accurately ripped (confidence 126) [87E8AFEB]
Track 11 accurately ripped (confidence 132) [A721FD47]

All tracks accurately ripped

End of status report

REM GENRE Rock
REM DATE 1990
REM DISCID 800D110B
REM COMMENT “ExactAudioCopy v0.99pb5”
PERFORMER “BAP”
TITLE “X Für’e U”
FILE “BAP – X Fuer’e U.flac” FLAC
TRACK 01 AUDIO
TITLE “Denn Mer Sinn Widder Wer”
PERFORMER “BAP”
INDEX 01 00:00:00
TRACK 02 AUDIO
TITLE “Vis à Vis”
PERFORMER “BAP”
INDEX 00 05:28:24
INDEX 01 05:28:65
TRACK 03 AUDIO
TITLE “Bleifooss”
PERFORMER “BAP”
INDEX 00 10:26:64
INDEX 01 10:28:35
TRACK 04 AUDIO
TITLE “Alles Em Lot”
PERFORMER “BAP”
INDEX 00 15:44:09
INDEX 01 15:46:02
TRACK 05 AUDIO
TITLE “Happy End”
PERFORMER “BAP”
INDEX 00 20:48:21
INDEX 01 20:49:02
TRACK 06 AUDIO
TITLE “Freio”
PERFORMER “BAP”
INDEX 00 25:06:37
INDEX 01 25:07:37
TRACK 07 AUDIO
TITLE “Sie Määt Süchtig”
PERFORMER “BAP”
INDEX 00 30:03:57
INDEX 01 30:03:60
TRACK 08 AUDIO
TITLE “Wat, Usser Rock’n’roll”
PERFORMER “BAP”
INDEX 00 34:21:24
INDEX 01 34:21:72
TRACK 09 AUDIO
TITLE “Domohls”
PERFORMER “BAP”
INDEX 00 39:40:24
INDEX 01 39:41:17
TRACK 10 AUDIO
TITLE “Griefbar Noh”
PERFORMER “BAP”
INDEX 00 44:37:59
INDEX 01 44:38:15
TRACK 11 AUDIO
TITLE “Land En Sicht”
PERFORMER “BAP”
INDEX 00 50:12:12
INDEX 01 50:13:40


Leave a Reply

Your email address will not be published. Required fields are marked *

This site uses Akismet to reduce spam. Learn how your comment data is processed.