BAP – Wahnsinn – Die Hits Von 79-95




Artist: BAP
Year: 1995
Genre: Rock
Notes: Discogs
Add. Notes:
Cover incl.: Yes
Encoder: FLAC
Bitrate: ~900 kBit/s (44.1 kHz/16 Bit/s)
Log & Cue incl.: Yes
Size: 502,04 MB
Password: “slam” (without ” “)


All Downloads/Hosters are compatible

Download 1
Turbobit.net
Rapidgator.net
KatFile.com
UploadRar.com
Download 2
Turbobit.net
Rapidgator.net
KatFile.com
UploadRar.com

Tracklist:

1 - Lass Se Doch Reden - 3:40
2 - Verdamp Lang Her - 5:48
3 - Ne Schöne Jrooss - 5:35
4 - Anna - 3:44
5 - Ich Danz Met Dir - 4:41
6 - Do Kanns Zaubere - 4:35
7 - Kristallnaach - 4:59
8 - Widderlich - 4:42
9 - Helfe Kann Dir Keiner - 4:26
10 - Paar Daach Fröher - 4:21
11 - Alexandra, Nit Nur Do - 5:49
12 - Ahl Männer, Aalglatt - 4:10
13 - Fortsetzung Folgt - 5:52
14 - Alles Em Lot - 5:03
15 - Wahnsinn (Crossover-Version) - 4:18
16 - Waschsalon - 2:26
17 - Wellenreiter - 2:20

EAC-Log, CUE-Sheed & NFO:

Click to open spoiler
Exact Audio Copy V0.99 prebeta 5 from 4. May 2009

EAC extraction logfile from 6. December 2011, 18:06

BAP / Wahnsinn – Die Hits von 79-95

Used drive : PIONEER DVD RW DVR-109 Adapter: 0 ID: 0

Read mode : Secure
Utilize accurate stream : Yes
Defeat audio cache : Yes
Make use of C2 pointers : No

Read offset correction : 48
Overread into Lead-In and Lead-Out : No
Fill up missing offset samples with silence : Yes
Delete leading and trailing silent blocks : No
Null samples used in CRC calculations : Yes
Used interface : Installed external ASPI interface

Used output format : Internal WAV Routines
Sample format : 44.100 Hz; 16 Bit; Stereo

TOC of the extracted CD

Track | Start | Length | Start sector | End sector
———————————————————
1 | 0:00.00 | 3:37.65 | 0 | 16339
2 | 3:37.65 | 5:48.62 | 16340 | 42501
3 | 9:26.52 | 5:35.65 | 42502 | 67691
4 | 15:02.42 | 3:44.50 | 67692 | 84541
5 | 18:47.17 | 4:41.30 | 84542 | 105646
6 | 23:28.47 | 4:34.00 | 105647 | 126196
7 | 28:02.47 | 4:59.08 | 126197 | 148629
8 | 33:01.55 | 4:42.17 | 148630 | 169796
9 | 37:43.72 | 4:26.65 | 169797 | 189811
10 | 42:10.62 | 4:21.53 | 189812 | 209439
11 | 46:32.40 | 5:49.52 | 209440 | 235666
12 | 52:22.17 | 4:10.60 | 235667 | 254476
13 | 56:33.02 | 5:52.65 | 254477 | 280941
14 | 62:25.67 | 5:03.18 | 280942 | 303684
15 | 67:29.10 | 4:18.55 | 303685 | 323089
16 | 71:47.65 | 2:26.30 | 323090 | 334069
17 | 74:14.20 | 2:19.50 | 334070 | 344544

Range status and errors

Selected range

Filename G:\Audio\BAP\BAP – Wahnsinn – Die Hits von 79-95.wav

Peak level 100.0 %
Range quality 99.9 %
Test CRC 3A0D3963
Copy CRC 3A0D3963
Copy OK

No errors occurred

AccurateRip summary

Track 1 accurately ripped (confidence 170) [59591271]
Track 2 accurately ripped (confidence 173) [5139C91F]
Track 3 accurately ripped (confidence 170) [14A872CB]
Track 4 accurately ripped (confidence 169) [22CFBC50]
Track 5 accurately ripped (confidence 168) [65D54950]
Track 6 accurately ripped (confidence 170) [4962C8CB]
Track 7 accurately ripped (confidence 172) [4E024A25]
Track 8 accurately ripped (confidence 167) [4E3C5DD6]
Track 9 accurately ripped (confidence 166) [273A5E1C]
Track 10 accurately ripped (confidence 168) [38C8DE31]
Track 11 accurately ripped (confidence 168) [29F075B3]
Track 12 accurately ripped (confidence 168) [3E6B82E4]
Track 13 accurately ripped (confidence 164) [3E23BAEB]
Track 14 accurately ripped (confidence 165) [BB4C964F]
Track 15 accurately ripped (confidence 160) [61B3B7F9]
Track 16 accurately ripped (confidence 165) [A715DB2C]
Track 17 accurately ripped (confidence 159) [0299CF2F]

All tracks accurately ripped

End of status report

REM GENRE Mundart
REM DATE 1995
REM DISCID FC11F111
REM COMMENT “ExactAudioCopy v0.99pb5”
PERFORMER “BAP”
TITLE “Wahnsinn – Die Hits von 79-95”
FILE “BAP – Wahnsinn – Die Hits von 79-95.flac” FLAC
TRACK 01 AUDIO
TITLE “Lass Se Doch Reden”
PERFORMER “BAP”
INDEX 01 00:00:00
TRACK 02 AUDIO
TITLE “Verdamp Lang Her”
PERFORMER “BAP”
INDEX 00 03:36:62
INDEX 01 03:37:65
TRACK 03 AUDIO
TITLE “Ne Schöne Jrooss”
PERFORMER “BAP”
INDEX 00 09:24:50
INDEX 01 09:26:52
TRACK 04 AUDIO
TITLE “Anna”
PERFORMER “BAP”
INDEX 00 14:59:17
INDEX 01 15:02:42
TRACK 05 AUDIO
TITLE “Ich Danz Met Dir”
PERFORMER “BAP”
INDEX 00 18:44:67
INDEX 01 18:47:17
TRACK 06 AUDIO
TITLE “Do Kanns Zaubere”
PERFORMER “BAP”
INDEX 00 23:26:05
INDEX 01 23:28:47
TRACK 07 AUDIO
TITLE “Kristallnaach”
PERFORMER “BAP”
INDEX 00 28:01:25
INDEX 01 28:02:47
TRACK 08 AUDIO
TITLE “Widderlich”
PERFORMER “BAP”
INDEX 00 32:59:10
INDEX 01 33:01:55
TRACK 09 AUDIO
TITLE “Helfe Kann Dir Keiner”
PERFORMER “BAP”
INDEX 00 37:41:50
INDEX 01 37:43:72
TRACK 10 AUDIO
TITLE “Paar Daach Fröher”
PERFORMER “BAP”
INDEX 00 42:08:63
INDEX 01 42:10:62
TRACK 11 AUDIO
TITLE “Alexandra, Nit Nur Do”
PERFORMER “BAP”
INDEX 00 46:30:27
INDEX 01 46:32:40
TRACK 12 AUDIO
TITLE “Ahl Männer, Aalglatt”
PERFORMER “BAP”
INDEX 00 52:19:36
INDEX 01 52:22:17
TRACK 13 AUDIO
TITLE “Fortsetzung Folgt”
PERFORMER “BAP”
INDEX 00 56:30:60
INDEX 01 56:33:02
TRACK 14 AUDIO
TITLE “Alles Em Lot”
PERFORMER “BAP”
INDEX 00 62:22:67
INDEX 01 62:25:67
TRACK 15 AUDIO
TITLE “Wahnsinn (Crossover-Version)”
PERFORMER “BAP”
INDEX 00 67:27:14
INDEX 01 67:29:10
TRACK 16 AUDIO
TITLE “Waschsalon”
PERFORMER “BAP”
INDEX 00 71:45:48
INDEX 01 71:47:65
TRACK 17 AUDIO
TITLE “Wellenreiter”
PERFORMER “BAP”
INDEX 00 74:11:17
INDEX 01 74:14:20


Leave a Reply

Your email address will not be published. Required fields are marked *

This site uses Akismet to reduce spam. Learn how your comment data is processed.