BAP – Tonfilm




Artist: BAP
Year: 1999
Genre: Rock
Notes: Discogs
Add. Notes:
Cover incl.: Yes
Encoder: FLAC
Bitrate: ~900 kBit/s (44.1 kHz/16 Bit/s)
Log & Cue incl.: Yes
Size: 515,62 MB
Password: “slam” (without ” “)


All Downloads/Hosters are compatible

Download 1
Turbobit.net
Rapidgator.net
KatFile.com
UploadRar.com
Download 2
Turbobit.net
Rapidgator.net
KatFile.com
UploadRar.com

Tracklist:

1 - Vum Donnernde Lääve - 2:35
2 - Ne Schöne Jrooss - 3:33
3 - Diss Naach Ess Alles Drinn - 5:51
4 - Rock'N'Roll Star - 3:07
5 - Müsli Män (Schrank-Version) - 5:27
6 - Rita, Mir Zwei - 3:43
7 - Asphaltpirate - 4:55
8 - Wat, Usser Rock'N'Roll? - 5:53
9 - Nemm Mich Met - 5:38
10 - Jede Draum Jedräump - 5:05
11 - Jupp - 3:59
12 - Mayday! - 3:24
13 - Vüür Johr Un Daach - 4:11
14 - Wo Bess Du Jetz? - 5:31
15 - Ruut, Wiess, Blau, Querjestriefte Frau - 5:50
16 - Ewije Affhängerei - 4:51

EAC-Log, CUE-Sheed & NFO:

Click to open spoiler
Exact Audio Copy V0.99 prebeta 5 from 4. May 2009

EAC extraction logfile from 14. December 2011, 13:28

BAP / Tonfilm

Used drive : PIONEER DVD RW DVR-109 Adapter: 0 ID: 0

Read mode : Secure
Utilize accurate stream : Yes
Defeat audio cache : Yes
Make use of C2 pointers : No

Read offset correction : 48
Overread into Lead-In and Lead-Out : No
Fill up missing offset samples with silence : Yes
Delete leading and trailing silent blocks : No
Null samples used in CRC calculations : Yes
Used interface : Installed external ASPI interface

Used output format : Internal WAV Routines
Sample format : 44.100 Hz; 16 Bit; Stereo

TOC of the extracted CD

Track | Start | Length | Start sector | End sector
———————————————————
1 | 0:00.00 | 2:35.52 | 0 | 11676
2 | 2:35.52 | 3:33.08 | 11677 | 27659
3 | 6:08.60 | 5:51.02 | 27660 | 53986
4 | 11:59.62 | 3:07.05 | 53987 | 68016
5 | 15:06.67 | 5:27.15 | 68017 | 92556
6 | 20:34.07 | 3:43.18 | 92557 | 109299
7 | 24:17.25 | 4:55.57 | 109300 | 131481
8 | 29:13.07 | 5:53.50 | 131482 | 158006
9 | 35:06.57 | 5:38.18 | 158007 | 183374
10 | 40:45.00 | 5:05.05 | 183375 | 206254
11 | 45:50.05 | 4:00.62 | 206255 | 224316
12 | 49:50.67 | 3:24.70 | 224317 | 239686
13 | 53:15.62 | 4:11.53 | 239687 | 258564
14 | 57:27.40 | 5:31.50 | 258565 | 283439
15 | 62:59.15 | 5:50.20 | 283440 | 309709
16 | 68:49.35 | 9:40.67 | 309710 | 353276

Range status and errors

Selected range

Filename G:\Audio\BAP – Tonfilm.wav

Peak level 100.0 %
Range quality 100.0 %
Test CRC 1C30A138
Copy CRC 1C30A138
Copy OK

No errors occurred

AccurateRip summary

Track 1 accurately ripped (confidence 63) [30DDB851]
Track 2 accurately ripped (confidence 67) [62073D9E]
Track 3 accurately ripped (confidence 65) [47495C7D]
Track 4 accurately ripped (confidence 65) [1B985011]
Track 5 accurately ripped (confidence 66) [ABDBC960]
Track 6 accurately ripped (confidence 66) [AF0FB4E0]
Track 7 accurately ripped (confidence 66) [9DAD885D]
Track 8 accurately ripped (confidence 65) [77EB3974]
Track 9 accurately ripped (confidence 66) [D7C59247]
Track 10 accurately ripped (confidence 65) [A3825AB4]
Track 11 accurately ripped (confidence 66) [68225B5A]
Track 12 accurately ripped (confidence 65) [D7E790FC]
Track 13 accurately ripped (confidence 65) [D6784C9B]
Track 14 accurately ripped (confidence 65) [6AECD568]
Track 15 accurately ripped (confidence 62) [4BB5419B]
Track 16 accurately ripped (confidence 60) [B7E39130]

All tracks accurately ripped

End of status report

REM GENRE Rock
REM DATE 1999
REM DISCID EB126610
REM COMMENT “ExactAudioCopy v0.99pb5”
PERFORMER “BAP”
TITLE “Tonfilm”
FILE “BAP – Tonfilm.flac” FLAC
TRACK 01 AUDIO
TITLE “Vum donnernde Lääve”
PERFORMER “BAP”
INDEX 01 00:00:00
TRACK 02 AUDIO
TITLE “Ne schöne Jrooß”
PERFORMER “BAP”
INDEX 01 02:35:52
TRACK 03 AUDIO
TITLE “Diss Naach ess alles drinn”
PERFORMER “BAP”
INDEX 01 06:08:60
TRACK 04 AUDIO
TITLE “Rock ‘n’ Roll Star”
PERFORMER “BAP”
INDEX 01 11:59:62
TRACK 05 AUDIO
TITLE “Müsli Män (Schrank-Version)”
PERFORMER “BAP”
INDEX 01 15:06:67
TRACK 06 AUDIO
TITLE “Rita, mir zwei”
PERFORMER “BAP”
INDEX 00 20:34:02
INDEX 01 20:34:07
TRACK 07 AUDIO
TITLE “Asphaltpirate”
PERFORMER “BAP”
INDEX 01 24:17:25
TRACK 08 AUDIO
TITLE “Wat, usser Rock ‘n’ Roll?”
PERFORMER “BAP”
INDEX 01 29:13:07
TRACK 09 AUDIO
TITLE “Nemm mich met”
PERFORMER “BAP”
INDEX 01 35:06:57
TRACK 10 AUDIO
TITLE “Jede Draum jedräump”
PERFORMER “BAP”
INDEX 01 40:45:00
TRACK 11 AUDIO
TITLE “Jupp”
PERFORMER “BAP”
INDEX 01 45:50:05
TRACK 12 AUDIO
TITLE “Mayday!”
PERFORMER “BAP”
INDEX 00 49:49:33
INDEX 01 49:50:67
TRACK 13 AUDIO
TITLE “Vüür Johr un Daach”
PERFORMER “BAP”
INDEX 00 53:14:70
INDEX 01 53:15:62
TRACK 14 AUDIO
TITLE “Wo bess du jetz?”
PERFORMER “BAP”
INDEX 01 57:27:40
TRACK 15 AUDIO
TITLE “Ruut, wiess, blau, querjestriefte Frau”
PERFORMER “BAP”
INDEX 01 62:59:15
TRACK 16 AUDIO
TITLE “Ewije Affhängerei”
PERFORMER “BAP”
INDEX 01 68:49:35
INDEX 02 73:40:70
INDEX 03 77:17:53


Leave a Reply

Your email address will not be published. Required fields are marked *

This site uses Akismet to reduce spam. Learn how your comment data is processed.