BAP – Sonx




Artist: BAP
Year: 2004
Genre: Rock
Notes: Discogs
Add. Notes:
Cover incl.: Yes
Encoder: FLAC
Bitrate: ~1000 kBit/s (44.1 kHz/16 Bit/s)
Log & Cue incl.: Yes
Size: 438,04 MB
Password: “slam” (without ” “)


All Downloads/Hosters are compatible

Download 1
Turbobit.net
KatFile.com
Rapidgator.net
Download 2
Turbobit.net
KatFile.com
Rapidgator.net

Tracklist:

1 - Wie, Wo Un Wann? - 5:04
2 - Jedenfalls Vermess - 4:11
3 - Rövver Noh Tanger - 4:46
4 - Für Maria - 4:37
5 - Ich Wünsch Mir, Du Wöhrs He - 3:43
6 - Wann Immer Du Nit Wiggerweiss - 4:28
7 - Et Ess Vorbei - 4:38
8 - Unger Krahnebäume - 3:12
9 - Jedanke Em Treibsand - 4:07
10 - Ein Für Allemohle - 3:25
11 - Unger Linde Enn Berlin - 5:01
12 - Absolut Ziellos - 3:46
13 - Einfach Ussortiert - 6:05
14 - Die Welt Ess Jrausam - 4:39

EAC-Log, CUE-Sheed & NFO:

Click to open spoiler
EAC extraction logfile from 22. February 2012, 21:36 for CD
BAP / Sonx

Used drive : PLEXTOR CD-R PX-W4012A Adapter: 0 ID: 0
Read mode : Secure with NO C2, accurate stream, disable cache
Read offset correction : 98
Overread into Lead-In and Lead-Out : No

Used output format : Internal WAV Routines
44.100 Hz; 16 Bit; Stereo

Other options :
Fill up missing offset samples with silence : Yes
Delete leading and trailing silent blocks : No
Native Win32 interface for Win NT & 2000

Range status and errors
Selected range
Filename F:\Audio\BAP\Rip\BAP – Sonx.wav

Peak level 100.0 %
Range quality 100.0 %
CRC 811AEF36
Copy OK

No errors occured

End of status report

PERFORMER “BAP”
TITLE “Sonx”
FILE “BAP – Sonx.flac” FLAC
TRACK 01 AUDIO
TITLE “Wie, wo un wann”
PERFORMER “BAP”
INDEX 01 00:00:00
TRACK 02 AUDIO
TITLE “Jedenfalls vermess”
PERFORMER “BAP”
INDEX 00 05:04:20
INDEX 01 05:04:35
TRACK 03 AUDIO
TITLE “Rövver noh Tanger”
PERFORMER “BAP”
INDEX 00 09:17:60
INDEX 01 09:18:05
TRACK 04 AUDIO
TITLE “Für Maria”
PERFORMER “BAP”
INDEX 00 14:04:22
INDEX 01 14:06:67
TRACK 05 AUDIO
TITLE “Ich wünsch mir, Du wöhrs he”
PERFORMER “BAP”
INDEX 00 18:44:32
INDEX 01 18:45:45
TRACK 06 AUDIO
TITLE “Wann immer Du nit wiggerweiss”
PERFORMER “BAP”
INDEX 00 22:29:70
INDEX 01 22:30:45
TRACK 07 AUDIO
TITLE “Et ess vorbei”
PERFORMER “BAP”
INDEX 00 26:58:65
INDEX 01 27:01:07
TRACK 08 AUDIO
TITLE “Unger Krahnebäume”
PERFORMER “BAP”
INDEX 00 31:40:10
INDEX 01 31:41:35
TRACK 09 AUDIO
TITLE “Jedanke em Treibsand”
PERFORMER “BAP”
INDEX 00 34:54:30
INDEX 01 34:56:10
TRACK 10 AUDIO
TITLE “Ein für allemohle”
PERFORMER “BAP”
INDEX 00 39:03:70
INDEX 01 39:05:27
TRACK 11 AUDIO
TITLE “Unger Linde enn Berlin”
PERFORMER “BAP”
INDEX 00 42:31:50
INDEX 01 42:33:32
TRACK 12 AUDIO
TITLE “Absolut ziellos”
PERFORMER “BAP”
INDEX 00 47:34:72
INDEX 01 47:37:05
TRACK 13 AUDIO
TITLE “Einfach ussortiert”
PERFORMER “BAP”
INDEX 00 51:23:65
INDEX 01 51:24:34
TRACK 14 AUDIO
TITLE “Die Welt ess jrausam”
PERFORMER “BAP”
INDEX 00 57:30:47
INDEX 01 57:34:34


Leave a Reply

Your email address will not be published. Required fields are marked *

This site uses Akismet to reduce spam. Learn how your comment data is processed.