BAP – Radio Pandora (Unplugged)




Artist: BAP
Year: 2008
Genre: Rock
Notes: Discogs
Add. Notes:
Cover incl.: Yes
Encoder: FLAC
Bitrate: ~900 kBit/s (44.1 kHz/16 Bit/s)
Log & Cue incl.: Yes
Size: 446,19 MB
Password: “slam” (without ” “)


All Downloads/Hosters are compatible

Download 1
Turbobit.net
Rapidgator.net
KatFile.com
UploadRar.com
Download 2
Turbobit.net
Rapidgator.net
KatFile.com
UploadRar.com
Download 3
Turbobit.net
Rapidgator.net
KatFile.com
UploadRar.com

Tracklist:

1 - Magdalena (Weil Maria Hatt Ich Schon) - 6:15
2 - Enn 'Ner Naach Wie Der - 4:09
3 - Kron Oder Turban - 5:01
4 - Señor - 4:19
5 - Hühr Zo, Pandora - 5:08
6 - Duude Bloome - 3:59
7 - Prädestiniert - 5:13
8 - Frankie Un Er - 5:44
9 - Morje Fröh Doheim - 3:58
10 - Noh Gulu - 5:07
11 - Wa'ss Loss Met Dä Stadt? - 5:13
12 - Dä Letzte Winter Em Letzte Kreech - 5:29
13 - Songs Sinn Dräume - 5:01
Epilog:
14 - Jed Körnche Sand - 5:26

EAC-Log, CUE-Sheed & NFO:

Click to open spoiler
Exact Audio Copy V0.99 prebeta 5 from 4. May 2009

EAC extraction logfile from 28. October 2011, 21:13

BAP / Radio Pandora (unplugged)

Used drive : PIONEER DVD RW DVR-109 Adapter: 0 ID: 0

Read mode : Secure
Utilize accurate stream : Yes
Defeat audio cache : Yes
Make use of C2 pointers : No

Read offset correction : 48
Overread into Lead-In and Lead-Out : No
Fill up missing offset samples with silence : Yes
Delete leading and trailing silent blocks : No
Null samples used in CRC calculations : Yes
Used interface : Installed external ASPI interface

Used output format : Internal WAV Routines
Sample format : 44.100 Hz; 16 Bit; Stereo

TOC of the extracted CD

Track | Start | Length | Start sector | End sector
———————————————————
1 | 0:00.00 | 6:14.73 | 0 | 28122
2 | 6:14.73 | 4:08.70 | 28123 | 46792
3 | 10:23.68 | 5:00.12 | 46793 | 69304
4 | 15:24.05 | 4:18.01 | 69305 | 88655
5 | 19:42.06 | 5:07.64 | 88656 | 111744
6 | 24:49.70 | 3:57.74 | 111745 | 129593
7 | 28:47.69 | 5:12.55 | 129594 | 153048
8 | 34:00.49 | 5:43.61 | 153049 | 178834
9 | 39:44.35 | 4:03.02 | 178835 | 197061
10 | 43:47.37 | 5:06.56 | 197062 | 220067
11 | 48:54.18 | 5:12.67 | 220068 | 243534
12 | 54:07.10 | 5:27.67 | 243535 | 268126
13 | 59:35.02 | 5:05.13 | 268127 | 291014
14 | 64:40.15 | 5:25.36 | 291015 | 315425

Range status and errors

Selected range

Filename G:\Audio\BAP\BAP – Radio Pandora (unplugged).wav

Peak level 99.8 %
Range quality 100.0 %
Test CRC F79A3822
Copy CRC F79A3822
Copy OK

No errors occurred

AccurateRip summary

Track 1 accurately ripped (confidence 45) [7C7BE2C4]
Track 2 accurately ripped (confidence 44) [E02AF35B]
Track 3 accurately ripped (confidence 45) [4E954A95]
Track 4 accurately ripped (confidence 44) [9BEEE482]
Track 5 accurately ripped (confidence 44) [4DB20BF4]
Track 6 accurately ripped (confidence 44) [CE3F19CA]
Track 7 accurately ripped (confidence 44) [D4C7F537]
Track 8 accurately ripped (confidence 45) [F9A5CDEB]
Track 9 accurately ripped (confidence 44) [30F6961A]
Track 10 accurately ripped (confidence 44) [A5A2F2F2]
Track 11 accurately ripped (confidence 45) [2451775F]
Track 12 accurately ripped (confidence 44) [6747BFF8]
Track 13 accurately ripped (confidence 43) [AE822DAF]
Track 14 accurately ripped (confidence 43) [51499603]

All tracks accurately ripped

End of status report

REM GENRE Rock
REM DATE 2008
REM DISCID DF106D0E
REM COMMENT “ExactAudioCopy v0.99pb5”
PERFORMER “BAP”
TITLE “Radio Pandora (unplugged)”
FILE “BAP – Radio Pandora (unplugged).flac” FLAC
TRACK 01 AUDIO
TITLE “Magdalena (weil Maria hatt ich schon)”
PERFORMER “BAP”
FLAGS DCP
INDEX 01 00:00:00
TRACK 02 AUDIO
TITLE “Enn ‘ner Naach wie der”
PERFORMER “BAP”
FLAGS DCP
INDEX 00 06:14:36
INDEX 01 06:14:73
TRACK 03 AUDIO
TITLE “Kron oder Turban”
PERFORMER “BAP”
FLAGS DCP
INDEX 00 10:23:56
INDEX 01 10:23:68
TRACK 04 AUDIO
TITLE “Señor”
PERFORMER “BAP”
FLAGS DCP
INDEX 01 15:24:05
TRACK 05 AUDIO
TITLE “Hühr zo, Pandora”
PERFORMER “BAP”
FLAGS DCP
INDEX 00 19:41:27
INDEX 01 19:42:06
TRACK 06 AUDIO
TITLE “Duude Bloome”
PERFORMER “BAP”
FLAGS DCP
INDEX 00 24:48:72
INDEX 01 24:49:70
TRACK 07 AUDIO
TITLE “Prädestiniert”
PERFORMER “BAP”
FLAGS DCP
INDEX 00 28:45:37
INDEX 01 28:47:69
TRACK 08 AUDIO
TITLE “Frankie un er”
PERFORMER “BAP”
FLAGS DCP
INDEX 00 34:00:30
INDEX 01 34:00:49
TRACK 09 AUDIO
TITLE “Morje fröh doheim”
PERFORMER “BAP”
FLAGS DCP
INDEX 01 39:44:35
TRACK 10 AUDIO
TITLE “Noh Gulu”
PERFORMER “BAP”
FLAGS DCP
INDEX 00 43:45:60
INDEX 01 43:47:37
TRACK 11 AUDIO
TITLE “Wa’ss loss met dä Stadt?”
PERFORMER “BAP”
FLAGS DCP
INDEX 00 48:54:04
INDEX 01 48:54:18
TRACK 12 AUDIO
TITLE “Dä letzte Winter em letzte Kreech”
PERFORMER “BAP”
FLAGS DCP
INDEX 01 54:07:10
TRACK 13 AUDIO
TITLE “Songs sinn Dräume”
PERFORMER “BAP”
FLAGS DCP
INDEX 00 59:32:44
INDEX 01 59:35:02
TRACK 14 AUDIO
TITLE “Jed Körnche Sand”
PERFORMER “BAP”
FLAGS DCP
INDEX 00 64:35:42
INDEX 01 64:40:15


Leave a Reply

Your email address will not be published. Required fields are marked *

This site uses Akismet to reduce spam. Learn how your comment data is processed.