BAP – Radio Pandora (Plugged)




Artist: BAP
Year: 2008
Genre: Rock
Notes: Discogs
Add. Notes:
Cover incl.: No
Encoder: FLAC
Bitrate: ~900 kBit/s (44.1 kHz/16 Bit/s)
Log & Cue incl.: Yes
Size: 471,1 MB
Password: “slam” (without ” “)


All Downloads/Hosters are compatible

Download 1
Turbobit.net
KatFile.com
Rapidgator.net
Usersdrive.com
Download 2
Turbobit.net
KatFile.com
Rapidgator.net
Usersdrive.com

Tracklist:

1 - Prädestiniert - 5:25
2 - Hühr Zo, Pandora - 4:54
3 - Et Ess, Wie't Ess - 3:44
4 - Diego Paz Wohr Nüngzehn - 6:44
5 - Frankie Un Er - 6:23
6 - Wat Für E' Booch! - 4:45
7 - Wolf Un Skorpion - 5:46
8 - Kron Oder Turban - 4:45
9 - Noh Gulu - 6:13
10 - Wa'ss Loss Met Dä Stadt? - 5:03
11 - Musik, Die Nit Stührt - 4:10
12 - Morje Fröh Doheim - 3:48
13 - Songs Sinn Dräume - 5:25
14 - Für Immer Jung - 5:21

EAC-Log, CUE-Sheed & NFO:

Click to open spoiler
Exact Audio Copy V0.99 prebeta 5 from 4. May 2009

EAC extraction logfile from 4. October 2011, 20:44

BAP / Radio Pandora (plugged)

Used drive : PIONEER DVD RW DVR-109 Adapter: 0 ID: 0

Read mode : Secure
Utilize accurate stream : Yes
Defeat audio cache : Yes
Make use of C2 pointers : No

Read offset correction : 48
Overread into Lead-In and Lead-Out : No
Fill up missing offset samples with silence : Yes
Delete leading and trailing silent blocks : No
Null samples used in CRC calculations : Yes
Used interface : Installed external ASPI interface

Used output format : Internal WAV Routines
Sample format : 44.100 Hz; 16 Bit; Stereo

TOC of the extracted CD

Track | Start | Length | Start sector | End sector
———————————————————
1 | 0:00.00 | 5:27.29 | 0 | 24553
2 | 5:27.29 | 4:54.08 | 24554 | 46611
3 | 10:21.37 | 3:45.01 | 46612 | 63487
4 | 14:06.38 | 6:46.27 | 63488 | 93964
5 | 20:52.65 | 6:23.49 | 93965 | 122738
6 | 27:16.39 | 4:45.39 | 122739 | 144152
7 | 32:02.03 | 5:46.17 | 144153 | 170119
8 | 37:48.20 | 4:45.17 | 170120 | 191511
9 | 42:33.37 | 6:13.65 | 191512 | 219551
10 | 48:47.27 | 5:03.23 | 219552 | 242299
11 | 53:50.50 | 4:10.54 | 242300 | 261103
12 | 58:01.29 | 3:48.16 | 261104 | 278219
13 | 61:49.45 | 5:26.44 | 278220 | 302713
14 | 67:16.14 | 5:21.40 | 302714 | 326828

Range status and errors

Selected range

Filename G:\Audio\BAP\BAP – Radio Pandora (plugged).wav

Peak level 99.8 %
Range quality 100.0 %
Test CRC 9208103E
Copy CRC 9208103E
Copy OK

No errors occurred

AccurateRip summary

Track 1 accurately ripped (confidence 37) [EF177A19]
Track 2 accurately ripped (confidence 38) [BDB7FF5F]
Track 3 accurately ripped (confidence 38) [4F53B5C8]
Track 4 accurately ripped (confidence 36) [EF21EB30]
Track 5 accurately ripped (confidence 38) [D256B3A3]
Track 6 accurately ripped (confidence 37) [0E8B1C75]
Track 7 accurately ripped (confidence 38) [CE28FD99]
Track 8 accurately ripped (confidence 38) [352E0BA6]
Track 9 accurately ripped (confidence 38) [3D2CA594]
Track 10 accurately ripped (confidence 38) [F9F08BB9]
Track 11 accurately ripped (confidence 38) [4091D148]
Track 12 accurately ripped (confidence 38) [3DEB8CE7]
Track 13 accurately ripped (confidence 37) [77A5385C]
Track 14 accurately ripped (confidence 35) [6031190D]

All tracks accurately ripped

End of status report

REM GENRE Deutsch
REM DATE 2008
REM DISCID C611050E
REM COMMENT “ExactAudioCopy v0.99pb5”
PERFORMER “BAP”
TITLE “Radio Pandora (plugged)”
FILE “BAP – Radio Pandora (plugged).flac” FLAC
TRACK 01 AUDIO
TITLE “Prädestiniert”
PERFORMER “BAP”
FLAGS DCP
INDEX 01 00:00:00
TRACK 02 AUDIO
TITLE “Hühr zo, Pandora”
PERFORMER “BAP”
FLAGS DCP
INDEX 00 05:27:02
INDEX 01 05:27:29
TRACK 03 AUDIO
TITLE “Et ess, wie’t ess”
PERFORMER “BAP”
FLAGS DCP
INDEX 00 10:21:19
INDEX 01 10:21:37
TRACK 04 AUDIO
TITLE “Diego Paz wohr nüngzehn”
PERFORMER “BAP”
FLAGS DCP
INDEX 00 14:04:46
INDEX 01 14:06:38
TRACK 05 AUDIO
TITLE “Frankie un er”
PERFORMER “BAP”
FLAGS DCP
INDEX 01 20:52:65
TRACK 06 AUDIO
TITLE “Wat für e’ Booch!”
PERFORMER “BAP”
FLAGS DCP
INDEX 00 27:16:13
INDEX 01 27:16:39
TRACK 07 AUDIO
TITLE “Wolf un Skorpion”
PERFORMER “BAP”
FLAGS DCP
INDEX 00 32:01:34
INDEX 01 32:02:03
TRACK 08 AUDIO
TITLE “Kron oder Turban”
PERFORMER “BAP”
FLAGS DCP
INDEX 00 37:47:28
INDEX 01 37:48:20
TRACK 09 AUDIO
TITLE “Noh Gulu”
PERFORMER “BAP”
FLAGS DCP
INDEX 00 42:31:10
INDEX 01 42:33:37
TRACK 10 AUDIO
TITLE “Wa’ss loss met dä Stadt?”
PERFORMER “BAP”
FLAGS DCP
INDEX 00 48:44:24
INDEX 01 48:47:27
TRACK 11 AUDIO
TITLE “Musik, die nit stührt”
PERFORMER “BAP”
FLAGS DCP
INDEX 00 53:50:38
INDEX 01 53:50:50
TRACK 12 AUDIO
TITLE “Morje fröh doheim”
PERFORMER “BAP”
FLAGS DCP
INDEX 01 58:01:29
TRACK 13 AUDIO
TITLE “Songs sinn Dräume”
PERFORMER “BAP”
FLAGS DCP
INDEX 00 61:47:54
INDEX 01 61:49:45
TRACK 14 AUDIO
TITLE “Für immer jung”
PERFORMER “BAP”
FLAGS DCP
INDEX 00 67:12:67
INDEX 01 67:16:14


Leave a Reply

Your email address will not be published. Required fields are marked *

This site uses Akismet to reduce spam. Learn how your comment data is processed.