BAP – Pik Sibbe




Artist: BAP
Year: 1993
Genre: Rock
Notes: Discogs
Add. Notes:
Cover incl.: No
Encoder: FLAC
Bitrate: ~900 kBit/s (44.1 kHz/16 Bit/s)
Log & Cue incl.: Yes
Size: 321,08 MB
Password: “slam” (without ” “)


All Downloads/Hosters are compatible

Download 1
Turbobit.net
Rapidgator.net
KatFile.com
UploadRar.com
Download 2
Turbobit.net
Rapidgator.net
KatFile.com
UploadRar.com

Tracklist:

1 - Widderlich - 4:37
2 - Jipsmann - 3:49
3 - Wie Die Sichel Vum Mohnd - 5:30
4 - Paar Daach Fröher - 4:16
5 - Nöher Zo Mir - 6:45
6 - Om Naasse Asphalt - 4:27
7 - Blonde Mohikaner - 3:23
8 - Hoffnungslos Hin - 4:40
9 - Wofür? - 3:06
10 - Naachtijall - 2:47
11 - Met Wolke Schwaade - 4:22
12 - Queen Vun Dä Ihrestrooss - 3:32

EAC-Log, CUE-Sheed & NFO:

Click to open spoiler
Exact Audio Copy V0.99 prebeta 5 from 4. May 2009

EAC extraction logfile from 29. November 2011, 13:18

BAP / Pik Sibbe

Used drive : PIONEER DVD RW DVR-109 Adapter: 0 ID: 0

Read mode : Secure
Utilize accurate stream : Yes
Defeat audio cache : Yes
Make use of C2 pointers : No

Read offset correction : 48
Overread into Lead-In and Lead-Out : No
Fill up missing offset samples with silence : Yes
Delete leading and trailing silent blocks : No
Null samples used in CRC calculations : Yes
Used interface : Installed external ASPI interface

Used output format : Internal WAV Routines
Sample format : 44.100 Hz; 16 Bit; Stereo

TOC of the extracted CD

Track | Start | Length | Start sector | End sector
———————————————————
1 | 0:00.33 | 4:40.07 | 33 | 21039
2 | 4:40.40 | 3:50.35 | 21040 | 38324
3 | 8:31.00 | 5:32.28 | 38325 | 63252
4 | 14:03.28 | 4:20.05 | 63253 | 82757
5 | 18:23.33 | 6:46.02 | 82758 | 113209
6 | 25:09.35 | 4:29.68 | 113210 | 133452
7 | 29:39.28 | 3:25.25 | 133453 | 148852
8 | 33:04.53 | 4:40.15 | 148853 | 169867
9 | 37:44.68 | 3:09.67 | 169868 | 184109
10 | 40:54.60 | 2:48.45 | 184110 | 196754
11 | 43:43.30 | 4:25.18 | 196755 | 216647
12 | 48:08.48 | 3:33.05 | 216648 | 232627

Range status and errors

Selected range

Filename G:\Audio\BAP\BAP – Pik Sibbe.wav

Peak level 97.2 %
Range quality 100.0 %
Test CRC 1CA7701B
Copy CRC 1CA7701B
Copy OK

No errors occurred

AccurateRip summary

Track 1 accurately ripped (confidence 125) [2CA7FDD0]
Track 2 accurately ripped (confidence 126) [CA027985]
Track 3 accurately ripped (confidence 122) [6A338215]
Track 4 accurately ripped (confidence 125) [F5BDC2AF]
Track 5 accurately ripped (confidence 123) [928A983D]
Track 6 accurately ripped (confidence 124) [6B65C2F8]
Track 7 accurately ripped (confidence 124) [6E795B18]
Track 8 accurately ripped (confidence 125) [1AAFA525]
Track 9 accurately ripped (confidence 124) [4F4271A9]
Track 10 accurately ripped (confidence 121) [B15B590B]
Track 11 accurately ripped (confidence 122) [FC8E9455]
Track 12 accurately ripped (confidence 125) [80050F1B]

All tracks accurately ripped

End of status report

REM GENRE Rock
REM DATE 1993
REM DISCID A30C1D0C
REM COMMENT “ExactAudioCopy v0.99pb5”
PERFORMER “BAP”
TITLE “Pik Sibbe”
FILE “BAP – Pik Sibbe.flac” FLAC
TRACK 01 AUDIO
TITLE “Widderlich”
PERFORMER “BAP”
INDEX 00 00:00:00
INDEX 01 00:00:33
TRACK 02 AUDIO
TITLE “Jipsmann”
PERFORMER “BAP”
INDEX 01 04:40:40
TRACK 03 AUDIO
TITLE “Wie die Sichel vum Mohnd”
PERFORMER “BAP”
INDEX 00 08:30:45
INDEX 01 08:31:00
TRACK 04 AUDIO
TITLE “Paar Daach fröher”
PERFORMER “BAP”
INDEX 00 14:02:50
INDEX 01 14:03:28
TRACK 05 AUDIO
TITLE “Nöher zo mir”
PERFORMER “BAP”
INDEX 00 18:22:20
INDEX 01 18:23:33
TRACK 06 AUDIO
TITLE “Om naasse Asphalt”
PERFORMER “BAP”
INDEX 00 25:07:65
INDEX 01 25:09:35
TRACK 07 AUDIO
TITLE “Blonde Mohikaner”
PERFORMER “BAP”
INDEX 00 29:38:38
INDEX 01 29:39:28
TRACK 08 AUDIO
TITLE “Hoffnungslos hin”
PERFORMER “BAP”
INDEX 00 33:03:73
INDEX 01 33:04:53
TRACK 09 AUDIO
TITLE “Wofür?”
PERFORMER “BAP”
INDEX 00 37:44:35
INDEX 01 37:44:68
TRACK 10 AUDIO
TITLE “Naachtijall”
PERFORMER “BAP”
INDEX 00 40:54:00
INDEX 01 40:54:60
TRACK 11 AUDIO
TITLE “Met Wolke Schwaade”
PERFORMER “BAP”
INDEX 00 43:42:68
INDEX 01 43:43:30
TRACK 12 AUDIO
TITLE “Queen vun dä Ihrestrooss”
PERFORMER “BAP”
INDEX 00 48:07:56
INDEX 01 48:08:48


Leave a Reply

Your email address will not be published. Required fields are marked *

Enter the text from the image below
 

This site uses Akismet to reduce spam. Learn how your comment data is processed.