BAP – Övverall




Artist: BAP
Year: 2002
Genre: Rock
Notes: Discogs
Add. Notes:
Cover incl.: No
Encoder: FLAC
Bitrate: ~1000 kBit/s (44.1 kHz/16 Bit/s)
Log & Cue incl.: Yes
Size: 1082,8 MB
Password: “slam” (without ” “)


All Downloads/Hosters are compatible

Download 1
Turbobit.net
Rapidgator.net
KatFile.com
UploadRar.com
Download 2
Turbobit.net
Rapidgator.net
KatFile.com
UploadRar.com

Tracklist:

1-1 - Hück Ess Sing Band En Der Stadt - 3:46
1-2 - Let's Spend The Night Together - 3:10
1-3 - Wat E' Johr - 5:22
1-4 - Denn Mer Sinn Widder Wer - 6:38
1-5 - Shoeshine - 6:22
1-6 - Bahnhofskino - 7:19
1-7 - Amerika - 8:13
1-8 - Mayday! - 3:50
1-9 - Du Kanns Zaubere - 5:09
1-10 - Lena - 4:41
1-11 - Ansage: Jan Un Griet-Story - 1:56
1-12 - Die Moritat Vun Jan Un Griet - 3:41
1-13 - Alexandra, Nit Nur Du - 7:30
1-14 - Ne Schöne Jrooß - 4:46
1-15 - Miss Samantha's Exclusiv-Discount-
Jeschenkboutik - 5:33
2-1 - Schluss, Aus, Okay - 7:26
2-2 - Kristallnaach - 5:56
2-3 - Widderlich - 4:57
2-4 - Vill Passiert Sickher - 5:44
2-5 - Aff Un Zo - 4:02
2-6 - Maat Et Joot - 5:11
2-7 - Leopardefellhoot - 4:37
2-8 - Diss Naach Ess Alles Drinn - 5:45
2-9 - Verdamp Lang Her - 9:18
2-10 - Ansage: Knast-Story - 2:12
2-11 - Psycho-Rodeo - 3:11
2-12 - Irjenden Rock'n'Roll-Band - 3:36
2-13 - Dir Allein - 7:36
2-14 - Ansage: Cohen/New York - 1:07
2-15 - Wat Schriev Mer En Su Enem Fall? - 6:32

EAC-Log, CUE-Sheed & NFO:

Click to open spoiler
Exact Audio Copy V0.99 prebeta 5 from 4. May 2009

EAC extraction logfile from 29. November 2011, 19:45

BAP / Övverall Disk 1

Used drive : PIONEER DVD RW DVR-109 Adapter: 0 ID: 0

Read mode : Secure
Utilize accurate stream : Yes
Defeat audio cache : Yes
Make use of C2 pointers : No

Read offset correction : 48
Overread into Lead-In and Lead-Out : No
Fill up missing offset samples with silence : Yes
Delete leading and trailing silent blocks : No
Null samples used in CRC calculations : Yes
Used interface : Installed external ASPI interface

Used output format : Internal WAV Routines
Sample format : 44.100 Hz; 16 Bit; Stereo

TOC of the extracted CD

Track | Start | Length | Start sector | End sector
———————————————————
1 | 0:00.00 | 3:46.25 | 0 | 16974
2 | 3:46.25 | 3:12.11 | 16975 | 31385
3 | 6:58.36 | 5:25.32 | 31386 | 55792
4 | 12:23.68 | 6:30.00 | 55793 | 85042
5 | 18:53.68 | 6:25.13 | 85043 | 113930
6 | 25:19.06 | 7:19.64 | 113931 | 146919
7 | 32:38.70 | 8:13.58 | 146920 | 183952
8 | 40:52.53 | 3:50.08 | 183953 | 201210
9 | 44:42.61 | 5:09.16 | 201211 | 224401
10 | 49:52.02 | 4:41.45 | 224402 | 245521
11 | 54:33.47 | 1:56.71 | 245522 | 254292
12 | 56:30.43 | 3:41.51 | 254293 | 270918
13 | 60:12.19 | 7:31.27 | 270919 | 304770
14 | 67:43.46 | 4:46.16 | 304771 | 326236
15 | 72:29.62 | 5:29.35 | 326237 | 350946

Range status and errors

Selected range

Filename G:\Audio\BAP\BAP – Övverall Disk 1.wav

Peak level 100.0 %
Range quality 100.0 %
Test CRC 799B80F6
Copy CRC 799B80F6
Copy OK

No errors occurred

AccurateRip summary

Track 1 accurately ripped (confidence 23) [B0CF0201]
Track 2 accurately ripped (confidence 23) [1B06D6FF]
Track 3 accurately ripped (confidence 24) [D14C158C]
Track 4 accurately ripped (confidence 24) [621A6A5D]
Track 5 accurately ripped (confidence 24) [3439E38C]
Track 6 accurately ripped (confidence 24) [8224E872]
Track 7 accurately ripped (confidence 24) [03A4CCBF]
Track 8 accurately ripped (confidence 24) [9BBED51B]
Track 9 accurately ripped (confidence 23) [CE564F4F]
Track 10 accurately ripped (confidence 24) [2ECB0039]
Track 11 accurately ripped (confidence 24) [93D7DE23]
Track 12 accurately ripped (confidence 24) [8A221673]
Track 13 accurately ripped (confidence 23) [5C01EC95]
Track 14 accurately ripped (confidence 23) [99DA9571]
Track 15 accurately ripped (confidence 20) [69C8C86C]

All tracks accurately ripped

End of status report

Exact Audio Copy V0.99 prebeta 5 from 4. May 2009

EAC extraction logfile from 29. November 2011, 20:22

BAP / Övverall Disk 2

Used drive : PIONEER DVD RW DVR-109 Adapter: 0 ID: 0

Read mode : Secure
Utilize accurate stream : Yes
Defeat audio cache : Yes
Make use of C2 pointers : No

Read offset correction : 48
Overread into Lead-In and Lead-Out : No
Fill up missing offset samples with silence : Yes
Delete leading and trailing silent blocks : No
Null samples used in CRC calculations : Yes
Used interface : Installed external ASPI interface

Used output format : Internal WAV Routines
Sample format : 44.100 Hz; 16 Bit; Stereo

TOC of the extracted CD

Track | Start | Length | Start sector | End sector
———————————————————
1 | 0:00.00 | 7:28.39 | 0 | 33638
2 | 7:28.39 | 5:56.05 | 33639 | 60343
3 | 13:24.44 | 4:57.21 | 60344 | 82639
4 | 18:21.65 | 5:44.35 | 82640 | 108474
5 | 24:06.25 | 4:02.52 | 108475 | 126676
6 | 28:09.02 | 5:11.10 | 126677 | 150011
7 | 33:20.12 | 4:37.39 | 150012 | 170825
8 | 37:57.51 | 5:45.62 | 170826 | 196762
9 | 43:43.38 | 9:18.30 | 196763 | 238642
10 | 53:01.68 | 2:12.69 | 238643 | 248611
11 | 55:14.62 | 3:11.35 | 248612 | 262971
12 | 58:26.22 | 3:34.08 | 262972 | 279029
13 | 62:00.30 | 7:34.10 | 279030 | 313089
14 | 69:34.40 | 1:07.24 | 313090 | 318138
15 | 70:41.64 | 6:31.61 | 318139 | 347524

Range status and errors

Selected range

Filename G:\Audio\BAP\BAP – Övverall Disk 2.wav

Peak level 99.8 %
Range quality 100.0 %
Test CRC B976A78B
Copy CRC B976A78B
Copy OK

No errors occurred

AccurateRip summary

Track 1 accurately ripped (confidence 22) [84A7E993]
Track 2 accurately ripped (confidence 22) [7DC8F392]
Track 3 accurately ripped (confidence 22) [2C52727D]
Track 4 accurately ripped (confidence 22) [F30863C5]
Track 5 accurately ripped (confidence 22) [9D59ED0F]
Track 6 accurately ripped (confidence 22) [2BA77D94]
Track 7 accurately ripped (confidence 22) [457151D1]
Track 8 accurately ripped (confidence 22) [DC1ED45E]
Track 9 accurately ripped (confidence 21) [85CFAD7E]
Track 10 accurately ripped (confidence 22) [68691FFA]
Track 11 accurately ripped (confidence 21) [F3BA92D5]
Track 12 accurately ripped (confidence 22) [118B6724]
Track 13 accurately ripped (confidence 21) [E67A05E0]
Track 14 accurately ripped (confidence 22) [9CAF120F]
Track 15 accurately ripped (confidence 21) [5C50A007]

All tracks accurately ripped

End of status report

REM GENRE kölsch-Rock
REM DATE 2002
REM DISCID CE12470F
REM COMMENT “ExactAudioCopy v0.99pb5”
PERFORMER “BAP”
TITLE “Övverall Disk 1”
FILE “BAP – Övverall Disk 1.flac” FLAC
TRACK 01 AUDIO
TITLE “Hück ess sing Band en der Stadt”
PERFORMER “BAP”
INDEX 01 00:00:00
TRACK 02 AUDIO
TITLE “Let’s Spend The Night Together”
PERFORMER “BAP”
INDEX 00 03:46:24
INDEX 01 03:46:25
TRACK 03 AUDIO
TITLE “Wat e’ Johr”
PERFORMER “BAP”
INDEX 00 06:58:35
INDEX 01 06:58:36
TRACK 04 AUDIO
TITLE “Denn mer sinn widder wer”
PERFORMER “BAP”
INDEX 00 12:23:67
INDEX 01 12:23:68
TRACK 05 AUDIO
TITLE “Shoeshine”
PERFORMER “BAP”
INDEX 01 18:53:68
TRACK 06 AUDIO
TITLE “Bahnhofskino”
PERFORMER “BAP”
INDEX 00 25:19:05
INDEX 01 25:19:06
TRACK 07 AUDIO
TITLE “Amerika”
PERFORMER “BAP”
INDEX 01 32:38:70
TRACK 08 AUDIO
TITLE “Mayday!”
PERFORMER “BAP”
INDEX 00 40:52:52
INDEX 01 40:52:53
TRACK 09 AUDIO
TITLE “Du kanns zaubere”
PERFORMER “BAP”
INDEX 00 44:42:60
INDEX 01 44:42:61
TRACK 10 AUDIO
TITLE “Lena”
PERFORMER “BAP”
INDEX 01 49:52:02
TRACK 11 AUDIO
TITLE “Ansage: Jan un Griet-Story”
PERFORMER “BAP”
INDEX 00 54:33:46
INDEX 01 54:33:47
TRACK 12 AUDIO
TITLE “Die Moritat vun Jan un Griet”
PERFORMER “BAP”
INDEX 00 56:30:42
INDEX 01 56:30:43
TRACK 13 AUDIO
TITLE “Alexandra, nit nur du”
PERFORMER “BAP”
INDEX 01 60:12:19
TRACK 14 AUDIO
TITLE “Ne schöne Jrooß”
PERFORMER “BAP”
INDEX 00 67:43:45
INDEX 01 67:43:46
TRACK 15 AUDIO
TITLE “Miss Samantha’s Exclusiv-Discount-Jeschenkboutik”
PERFORMER “BAP”
INDEX 01 72:29:62

REM GENRE Kölsch-Rock
REM DATE 2002
REM DISCID C012190F
REM COMMENT “ExactAudioCopy v0.99pb5”
PERFORMER “BAP”
TITLE “Övverall Disk 2”
FILE “BAP – Övverall Disk 2.flac” FLAC
TRACK 01 AUDIO
TITLE “Schluss, aus, okay”
PERFORMER “BAP”
INDEX 01 00:00:00
TRACK 02 AUDIO
TITLE “Kristallnaach”
PERFORMER “BAP”
INDEX 01 07:28:39
TRACK 03 AUDIO
TITLE “Widderlich”
PERFORMER “BAP”
INDEX 01 13:24:44
TRACK 04 AUDIO
TITLE “Vill passiert Sickher”
PERFORMER “BAP”
INDEX 01 18:21:65
TRACK 05 AUDIO
TITLE “Aff un zo”
PERFORMER “BAP”
INDEX 01 24:06:25
TRACK 06 AUDIO
TITLE “Maat et joot”
PERFORMER “BAP”
INDEX 01 28:09:02
TRACK 07 AUDIO
TITLE “Leopardenfellhoot”
PERFORMER “BAP”
INDEX 01 33:20:12
TRACK 08 AUDIO
TITLE “Diss Naach ess alles drin”
PERFORMER “BAP”
INDEX 01 37:57:51
TRACK 09 AUDIO
TITLE “Verdamp lang her”
PERFORMER “BAP”
INDEX 01 43:43:38
TRACK 10 AUDIO
TITLE “Ansage: Knast-Story”
PERFORMER “BAP”
INDEX 01 53:01:68
TRACK 11 AUDIO
TITLE “Psycho-Rodeo”
PERFORMER “BAP”
INDEX 01 55:14:62
TRACK 12 AUDIO
TITLE “Irjenden Rock’n’Roll-Band”
PERFORMER “BAP”
INDEX 01 58:26:22
TRACK 13 AUDIO
TITLE “Dir allein”
PERFORMER “BAP”
INDEX 01 62:00:30
TRACK 14 AUDIO
TITLE “Ansage: Cohen/New York”
PERFORMER “BAP”
INDEX 01 69:34:40
TRACK 15 AUDIO
TITLE “Wat schriev’ mer en su enem Fall?”
PERFORMER “BAP”
INDEX 01 70:41:64


Leave a Reply

Your email address will not be published. Required fields are marked *

Enter the text from the image below
 

This site uses Akismet to reduce spam. Learn how your comment data is processed.