BAP – Live und in Farbe – Radio Pandora-Tour 2008/2009




[Total: 0    Average: 0/5]

Artist: BAP
Year: 2009
Genre: Rock
Notes: Discogs
Add. Notes:
Cover incl.: No
Encoder: FLAC
Bitrate: ~900 kBit/s (44.1 kHz/16 Bit/s)
Log & Cue incl.: Yes
Size: 1417,23 MB
Password: “slam” (without ” “)


All Downloads/Hosters are compatible

Download 1
Share-online.biz
Rapidgator.net
KatFile.com
UploadRar.com
Download 2
Share-online.biz
Rapidgator.net
KatFile.com
UploadRar.com
Download 3
Share-online.biz
Rapidgator.net
KatFile.com
UploadRar.com

Tracklist:

1-1. Unterwegs
1-2. Wat Für E' Booch!
1-3. Musik, Die Nit Stührt
1-4. Begrüßung
1-5. Songs Sinn Dräume 
1-6. Nemm Mich Met
1-7. Rövver Noh Tanger 
1-8. Kron Oder Turban
1-9. Diego Paz Wor Nüngzehn
1-10. Amerika
1-11. Frankie Un Er
1-12. Magdalena (Weil Maria Hatt Ich Schon)
1-13. Duude Bloome. 
1-14. Rita, Mir Zwei
1-15. Morje Fröh Doheim
2-1. Frau, Ich Freu Mich 
2-2. Aff Un Zo
2-3. Et Ess, Wie't Ess
2-4. Für 'Ne Moment
2-5. Bandvorstellung 
2-6. Wolf Un Skorpion 
2-7. Noh Gulu
2-8. Bahnhofskino
2-9. Für Immer Jung 
2-10. Ne Schöne Jrooss 
2-11. Unger Krahnebäume 
2-12. Arsch Huh - Zäng Ussenander
2-13. Kristallnaach
2-14. Rääts Un Links Vum Bahndamm
3-1. Helfe Kann Dir Keiner
3-2. Nix Wie Bessher
3-3. Ens Em Vertrau 
3-4. Do Kanns Zaubere 
3-5. Hühr Zo, Pandora 
3-6. Souvenirs
3-7. Millione Meile
3-8. Verdamp Lang Her
3-9. Alexandra, Nit Nur Do
3-10. Wie 'Ne Blaue Ballon

EAC-Log, CUE-Sheed & NFO:

Click to open spoiler
Exact Audio Copy V0.99 prebeta 5 from 4. May 2009

EAC extraction logfile from 16. December 2011, 9:40

BAP / Live und in Farbe – CD 1

Used drive : PIONEER DVD RW DVR-109 Adapter: 0 ID: 0

Read mode : Secure
Utilize accurate stream : Yes
Defeat audio cache : Yes
Make use of C2 pointers : No

Read offset correction : 48
Overread into Lead-In and Lead-Out : No
Fill up missing offset samples with silence : Yes
Delete leading and trailing silent blocks : No
Null samples used in CRC calculations : Yes
Used interface : Native Win32 interface for Win NT & 2000

Used output format : Internal WAV Routines
Sample format : 44.100 Hz; 16 Bit; Stereo

TOC of the extracted CD

Track | Start | Length | Start sector | End sector
———————————————————
1 | 0:00.00 | 2:08.01 | 0 | 9600
2 | 2:08.01 | 5:06.48 | 9601 | 32598
3 | 7:14.49 | 4:15.71 | 32599 | 51794
4 | 11:30.45 | 0:58.21 | 51795 | 56165
5 | 12:28.66 | 5:25.60 | 56166 | 80600
6 | 17:54.51 | 5:46.65 | 80601 | 106615
7 | 23:41.41 | 4:55.72 | 106616 | 128812
8 | 28:37.38 | 5:07.37 | 128813 | 151874
9 | 33:45.00 | 8:01.08 | 151875 | 187957
10 | 41:46.08 | 7:35.20 | 187958 | 222102
11 | 49:21.28 | 6:23.35 | 222103 | 250862
12 | 55:44.63 | 7:16.24 | 250863 | 283586
13 | 63:01.12 | 4:02.59 | 283587 | 301795
14 | 67:03.71 | 3:51.37 | 301796 | 319157
15 | 70:55.33 | 4:18.65 | 319158 | 338572

Range status and errors

Selected range

Filename F:\Audio\BAP\BAP – Live und in Farbe – CD 1.wav

Peak level 99.8 %
Range quality 100.0 %
Test CRC 0CBB9ACB
Copy CRC 0CBB9ACB
Copy OK

No errors occurred

AccurateRip summary

Track 1 accurately ripped (confidence 20) [F302AF9B]
Track 2 accurately ripped (confidence 20) [B44DBCE9]
Track 3 accurately ripped (confidence 20) [6C4368D6]
Track 4 accurately ripped (confidence 20) [AE10F81A]
Track 5 accurately ripped (confidence 20) [25C89071]
Track 6 accurately ripped (confidence 20) [15FB965C]
Track 7 accurately ripped (confidence 20) [1CFE05D5]
Track 8 accurately ripped (confidence 20) [9605FAA0]
Track 9 accurately ripped (confidence 20) [6A9BCD2D]
Track 10 accurately ripped (confidence 20) [1B352BF0]
Track 11 accurately ripped (confidence 20) [BD223059]
Track 12 accurately ripped (confidence 20) [94B88933]
Track 13 accurately ripped (confidence 20) [78CD8B57]
Track 14 accurately ripped (confidence 20) [46246151]
Track 15 accurately ripped (confidence 20) [8DFE8E26]

All tracks accurately ripped

End of status report

Exact Audio Copy V0.99 prebeta 5 from 4. May 2009

EAC extraction logfile from 16. December 2011, 21:38

BAP / Live und in Farbe CD2

Used drive : PIONEER DVD RW DVR-109 Adapter: 0 ID: 0

Read mode : Secure
Utilize accurate stream : Yes
Defeat audio cache : Yes
Make use of C2 pointers : No

Read offset correction : 48
Overread into Lead-In and Lead-Out : No
Fill up missing offset samples with silence : Yes
Delete leading and trailing silent blocks : No
Null samples used in CRC calculations : Yes
Used interface : Native Win32 interface for Win NT & 2000

Used output format : Internal WAV Routines
Sample format : 44.100 Hz; 16 Bit; Stereo

TOC of the extracted CD

Track | Start | Length | Start sector | End sector
———————————————————
1 | 0:00.00 | 5:47.34 | 0 | 26058
2 | 5:47.34 | 5:55.57 | 26059 | 52740
3 | 11:43.16 | 4:16.02 | 52741 | 71942
4 | 15:59.18 | 4:14.73 | 71943 | 91065
5 | 20:14.16 | 1:13.66 | 91066 | 96606
6 | 21:28.07 | 5:48.47 | 96607 | 122753
7 | 27:16.54 | 5:54.42 | 122754 | 149345
8 | 33:11.21 | 7:10.67 | 149346 | 181662
9 | 40:22.13 | 6:35.48 | 181663 | 211335
10 | 46:57.61 | 5:16.42 | 211336 | 235077
11 | 52:14.28 | 3:24.55 | 235078 | 250432
12 | 55:39.08 | 6:21.71 | 250433 | 279078
13 | 62:01.04 | 6:00.34 | 279079 | 306112
14 | 68:01.38 | 5:45.49 | 306113 | 332036

Range status and errors

Selected range

Filename F:\Audio\BAP\BAP – Live und in Farbe – CD 2.wav

Peak level 99.8 %
Range quality 99.9 %
Test CRC 69B5CAA7
Copy CRC FD4E314A
Copy OK

No errors occurred

AccurateRip summary

Track 1 accurately ripped (confidence 22) [5247F8AB]
Track 2 accurately ripped (confidence 22) [518E13B6]
Track 3 accurately ripped (confidence 22) [8C0655F8]
Track 4 accurately ripped (confidence 22) [F0842DEA]
Track 5 accurately ripped (confidence 22) [C955FAAD]
Track 6 accurately ripped (confidence 22) [1C8A9C5E]
Track 7 accurately ripped (confidence 22) [787B31B6]
Track 8 accurately ripped (confidence 21) [CCA72950]
Track 9 accurately ripped (confidence 21) [8DA8BF25]
Track 10 accurately ripped (confidence 22) [2C634550]
Track 11 accurately ripped (confidence 22) [8C1FEF1B]
Track 12 accurately ripped (confidence 22) [2B0FDE2D]
Track 13 accurately ripped (confidence 22) [A666F8D7]
Track 14 accurately ripped (confidence 23) [B1933F8D]

All tracks accurately ripped

End of status report

Exact Audio Copy V0.99 prebeta 5 from 4. May 2009

EAC extraction logfile from 16. December 2011, 15:43

BAP / Live und in Farbe (Radio Pandora Tour) – CD 3

Used drive : PIONEER DVD RW DVR-109 Adapter: 0 ID: 0

Read mode : Secure
Utilize accurate stream : Yes
Defeat audio cache : Yes
Make use of C2 pointers : No

Read offset correction : 48
Overread into Lead-In and Lead-Out : No
Fill up missing offset samples with silence : Yes
Delete leading and trailing silent blocks : No
Null samples used in CRC calculations : Yes
Used interface : Native Win32 interface for Win NT & 2000

Used output format : Internal WAV Routines
Sample format : 44.100 Hz; 16 Bit; Stereo

TOC of the extracted CD

Track | Start | Length | Start sector | End sector
———————————————————
1 | 0:00.00 | 5:06.63 | 0 | 23012
2 | 5:06.63 | 5:36.53 | 23013 | 48265
3 | 10:43.41 | 4:45.49 | 48266 | 69689
4 | 15:29.15 | 5:24.11 | 69690 | 94000
5 | 20:53.26 | 4:52.51 | 94001 | 115951
6 | 25:46.02 | 4:49.47 | 115952 | 137673
7 | 30:35.49 | 9:57.34 | 137674 | 182482
8 | 40:33.08 | 8:42.63 | 182483 | 221695
9 | 49:15.71 | 6:05.71 | 221696 | 249141
10 | 55:21.67 | 5:18.21 | 249142 | 273012

Range status and errors

Selected range

Filename F:\Audio\BAP\BAP – Live und in Farbe – CD 3.wav

Peak level 99.8 %
Range quality 100.0 %
Test CRC 215C7BB5
Copy CRC 215C7BB5
Copy OK

No errors occurred

AccurateRip summary

Track 1 accurately ripped (confidence 24) [C67965FA]
Track 2 accurately ripped (confidence 24) [37C7E361]
Track 3 accurately ripped (confidence 24) [9A1F8D5D]
Track 4 accurately ripped (confidence 24) [432B71E8]
Track 5 accurately ripped (confidence 24) [73166B52]
Track 6 accurately ripped (confidence 24) [16BECDD1]
Track 7 accurately ripped (confidence 24) [D92D6610]
Track 8 accurately ripped (confidence 24) [B12A20DC]
Track 9 accurately ripped (confidence 24) [C65C29E0]
Track 10 accurately ripped (confidence 24) [A63F1712]

All tracks accurately ripped

End of status report

REM GENRE Rock
REM DATE 2009
REM DISCID CA11A20F
REM COMMENT “ExactAudioCopy v0.99pb5”
PERFORMER “BAP”
TITLE “Live und in Farbe – CD 1”
FILE “BAP – Live und in Farbe – CD 1.flac” FLAC
TRACK 01 AUDIO
TITLE “Unterwegs (live)”
PERFORMER “BAP”
FLAGS DCP
INDEX 01 00:00:00
TRACK 02 AUDIO
TITLE “Wat für e’ Booch (live)”
PERFORMER “BAP”
FLAGS DCP
INDEX 01 02:08:01
TRACK 03 AUDIO
TITLE “Musik, die nit stührt (live)”
PERFORMER “BAP”
FLAGS DCP
INDEX 01 07:14:49
TRACK 04 AUDIO
TITLE “Begrüßung (live)”
PERFORMER “BAP”
FLAGS DCP
INDEX 01 11:30:45
TRACK 05 AUDIO
TITLE “Songs sinn Dräume (live)”
PERFORMER “BAP”
FLAGS DCP
INDEX 01 12:28:66
TRACK 06 AUDIO
TITLE “Nemm mich met (live)”
PERFORMER “BAP”
FLAGS DCP
INDEX 01 17:54:51
TRACK 07 AUDIO
TITLE “Rövver noh Tanger (live)”
PERFORMER “BAP”
FLAGS DCP
INDEX 01 23:41:41
TRACK 08 AUDIO
TITLE “Kron un Turban (live)”
PERFORMER “BAP”
FLAGS DCP
INDEX 01 28:37:38
TRACK 09 AUDIO
TITLE “Diego Paz wohr nüngzehn (live)”
PERFORMER “BAP”
FLAGS DCP
INDEX 01 33:45:00
TRACK 10 AUDIO
TITLE “Amerika (live)”
PERFORMER “BAP”
FLAGS DCP
INDEX 01 41:46:08
TRACK 11 AUDIO
TITLE “Frankie un er (live)”
PERFORMER “BAP”
FLAGS DCP
INDEX 01 49:21:28
TRACK 12 AUDIO
TITLE “Magdalena (weil Maria hatt ich schon) (live)”
PERFORMER “BAP”
FLAGS DCP
INDEX 01 55:44:63
TRACK 13 AUDIO
TITLE “Duude Bloome (live)”
PERFORMER “BAP”
FLAGS DCP
INDEX 01 63:01:12
TRACK 14 AUDIO
TITLE “Rita, mir Zwei (live)”
PERFORMER “BAP”
FLAGS DCP
INDEX 01 67:03:71
TRACK 15 AUDIO
TITLE “Morje fröh doheim (live)”
PERFORMER “BAP”
FLAGS DCP
INDEX 01 70:55:33

REM GENRE Folk-Rock
REM DATE 2009
REM DISCID C2114B0E
REM COMMENT “ExactAudioCopy v0.99pb5”
PERFORMER “BAP”
TITLE “Live und in Farbe CD2”
FILE “BAP – Live und in Farbe – CD 2.flac” FLAC
TRACK 01 AUDIO
TITLE “Frau ich freu mich”
PERFORMER “BAP”
FLAGS DCP
INDEX 01 00:00:00
TRACK 02 AUDIO
TITLE “Aff un zo”
PERFORMER “BAP”
FLAGS DCP
INDEX 01 05:47:34
TRACK 03 AUDIO
TITLE “Et ess, wie’t ess”
PERFORMER “BAP”
FLAGS DCP
INDEX 01 11:43:16
TRACK 04 AUDIO
TITLE “Für ne Moment”
PERFORMER “BAP”
FLAGS DCP
INDEX 01 15:59:18
TRACK 05 AUDIO
TITLE “Bandvorstellung”
PERFORMER “BAP”
FLAGS DCP
INDEX 01 20:14:16
TRACK 06 AUDIO
TITLE “Wolf un Skorpion”
PERFORMER “BAP”
FLAGS DCP
INDEX 01 21:28:07
TRACK 07 AUDIO
TITLE “Noh Gulu”
PERFORMER “BAP”
FLAGS DCP
INDEX 01 27:16:54
TRACK 08 AUDIO
TITLE “Bahnhofskino”
PERFORMER “BAP”
FLAGS DCP
INDEX 01 33:11:21
TRACK 09 AUDIO
TITLE “(Für immer jung) Forever Young”
PERFORMER “BAP”
FLAGS DCP
INDEX 01 40:22:13
TRACK 10 AUDIO
TITLE “Ne schöne Jrooss”
PERFORMER “BAP”
FLAGS DCP
INDEX 01 46:57:61
TRACK 11 AUDIO
TITLE “Unger Krahnebäume”
PERFORMER “BAP”
FLAGS DCP
INDEX 01 52:14:28
TRACK 12 AUDIO
TITLE “Arsch huh – Zäng ussenander”
PERFORMER “BAP”
FLAGS DCP
INDEX 01 55:39:08
TRACK 13 AUDIO
TITLE “Kristallnaach”
PERFORMER “BAP”
FLAGS DCP
INDEX 01 62:01:04
TRACK 14 AUDIO
TITLE “Rääts un links vum Bahndamm”
PERFORMER “BAP”
FLAGS DCP
INDEX 01 68:01:38

REM GENRE Kölsch-Rock
REM DATE 2009
REM DISCID 8B0E380A
REM COMMENT “ExactAudioCopy v0.99pb5”
PERFORMER “BAP”
TITLE “Live und in Farbe (Radio Pandora Tour) – CD 3”
FILE “BAP – Live und in Farbe – CD 3.flac” FLAC
TRACK 01 AUDIO
TITLE “Helfe kann dir keiner”
PERFORMER “BAP”
FLAGS DCP
INDEX 01 00:00:00
TRACK 02 AUDIO
TITLE “Nix wie bessher”
PERFORMER “BAP”
FLAGS DCP
INDEX 01 05:06:63
TRACK 03 AUDIO
TITLE “Ens em Vertraue”
PERFORMER “BAP”
FLAGS DCP
INDEX 01 10:43:41
TRACK 04 AUDIO
TITLE “Do kanns zaubere”
PERFORMER “BAP”
FLAGS DCP
INDEX 01 15:29:15
TRACK 05 AUDIO
TITLE “Hühr zu, Pandora”
PERFORMER “BAP”
FLAGS DCP
INDEX 01 20:53:26
TRACK 06 AUDIO
TITLE “Souvenirs”
PERFORMER “BAP”
FLAGS DCP
INDEX 01 25:46:02
TRACK 07 AUDIO
TITLE “Millione Meile”
PERFORMER “BAP”
FLAGS DCP
INDEX 01 30:35:49
TRACK 08 AUDIO
TITLE “Verdamp lang her”
PERFORMER “BAP”
FLAGS DCP
INDEX 01 40:33:08
TRACK 09 AUDIO
TITLE “Alexandra, nit nur do”
PERFORMER “BAP”
FLAGS DCP
INDEX 01 49:15:71
TRACK 10 AUDIO
TITLE “Wie’ne blaue Ballon”
PERFORMER “BAP”
FLAGS DCP
INDEX 01 55:21:67


Spread the Download

Leave a Reply

Your email address will not be published. Required fields are marked *

Enter the text from the image below
 

This site uses Akismet to reduce spam. Learn how your comment data is processed.