BAP – Halv Su Wild




No Cover available

Artist: BAP
Year: 2011
Genre: Rock
Notes: Discogs
Add. Notes:
Watch Songs on: YouTube
Cover incl.: Yes
Encoder: FLAC
Bitrate: ~1000 kBit/s (44.1 kHz/16 Bit/s)
Log & Cue incl.: Yes
Size: 422,7 MB
Password: “slam” (without ” “)


All Downloads/Hosters are compatible

Download 1
KatFile.com
Turbobit.net
FileFactory.com
Rapidgator.net
Download 2
KatFile.com
Turbobit.net
FileFactory.com
Rapidgator.net

Tracklist:

1 - Halv Su Wild - 3:37
2 - Et Levve Ess En Autobahn - 4:53
3 - Keine Droppe Mieh - 4:15
4 - Un Donoh Ess Dä Karneval Vorbei - 3:26
5 - Chlodwigplatz - 4:07
6 - Noh All Dänne Johre - 5:59
7 - Woröm Dunn Ich Mir Dat Eijentlich Ann? - 4:39
8 - Verjess Babylon - 5:58
9 - Karl-Heinz - 2:20
10 - All Die Aureblecke - 4:18
11 - Immerhin - 4:15
12 - Enn Dreidüüvelsname - 4:42
13 - Niemohls - 4:53
14 - Waat Ens Jraad - 4:15

EAC-Log, CUE-Sheed & NFO:

Click to open spoiler
Exact Audio Copy V0.99 prebeta 5 from 4. May 2009

EAC extraction logfile from 29. October 2011, 9:58

BAP / Halv su wild

Used drive : PIONEER DVD RW DVR-109 Adapter: 0 ID: 0

Read mode : Secure
Utilize accurate stream : Yes
Defeat audio cache : Yes
Make use of C2 pointers : No

Read offset correction : 48
Overread into Lead-In and Lead-Out : No
Fill up missing offset samples with silence : Yes
Delete leading and trailing silent blocks : No
Null samples used in CRC calculations : Yes
Used interface : Installed external ASPI interface

Used output format : Internal WAV Routines
Sample format : 44.100 Hz; 16 Bit; Stereo

TOC of the extracted CD

Track | Start | Length | Start sector | End sector
———————————————————
1 | 0:00.00 | 3:36.51 | 0 | 16250
2 | 3:36.51 | 4:52.59 | 16251 | 38209
3 | 8:29.35 | 4:14.38 | 38210 | 57297
4 | 12:43.73 | 3:25.48 | 57298 | 72720
5 | 16:09.46 | 4:07.52 | 72721 | 91297
6 | 20:17.23 | 5:58.17 | 91298 | 118164
7 | 26:15.40 | 4:38.47 | 118165 | 139061
8 | 30:54.12 | 5:58.05 | 139062 | 165916
9 | 36:52.17 | 2:20.14 | 165917 | 176430
10 | 39:12.31 | 4:18.17 | 176431 | 195797
11 | 43:30.48 | 4:14.41 | 195798 | 214888
12 | 47:45.14 | 4:41.49 | 214889 | 236012
13 | 52:26.63 | 4:53.02 | 236013 | 257989
14 | 57:19.65 | 4:14.47 | 257990 | 277086

Range status and errors

Selected range

Filename G:\Audio\BAP\BAP – Halv su wild.wav

Peak level 99.8 %
Range quality 100.0 %
Test CRC 91EBB0BC
Copy CRC 91EBB0BC
Copy OK

No errors occurred

AccurateRip summary

Track 1 accurately ripped (confidence 17) [4D75FDFD]
Track 2 accurately ripped (confidence 17) [C8FD23C4]
Track 3 accurately ripped (confidence 17) [58CAAF3C]
Track 4 accurately ripped (confidence 17) [985E4472]
Track 5 accurately ripped (confidence 17) [A03CC8A6]
Track 6 accurately ripped (confidence 17) [AA9DD12E]
Track 7 accurately ripped (confidence 17) [F0616079]
Track 8 accurately ripped (confidence 17) [8F453692]
Track 9 accurately ripped (confidence 17) [B598CF5C]
Track 10 accurately ripped (confidence 17) [ADEF7713]
Track 11 accurately ripped (confidence 17) [2385B1E6]
Track 12 accurately ripped (confidence 17) [47014FF6]
Track 13 accurately ripped (confidence 17) [5545015F]
Track 14 accurately ripped (confidence 17) [A1353CFC]

All tracks accurately ripped

End of status report

REM GENRE Deutschrock
REM DATE 2011
REM DISCID C10E6E0E
REM COMMENT “ExactAudioCopy v0.99pb5”
PERFORMER “BAP”
TITLE “Halv su wild”
FILE “BAP – Halv su wild.flac” FLAC
TRACK 01 AUDIO
TITLE “Halv su wild”
PERFORMER “BAP”
FLAGS DCP
INDEX 01 00:00:00
TRACK 02 AUDIO
TITLE “Et Levve es en Autobahn”
PERFORMER “BAP”
FLAGS DCP
INDEX 01 03:36:51
TRACK 03 AUDIO
TITLE “Keine Droppe mieh”
PERFORMER “BAP”
FLAGS DCP
INDEX 01 08:29:35
TRACK 04 AUDIO
TITLE “Un donoh ess dä Karneval vorbei”
PERFORMER “BAP”
FLAGS DCP
INDEX 01 12:43:73
TRACK 05 AUDIO
TITLE “Chlodwigplatz”
PERFORMER “BAP”
FLAGS DCP
INDEX 01 16:09:46
TRACK 06 AUDIO
TITLE “Noh all dänne Johre”
PERFORMER “BAP”
FLAGS DCP
INDEX 01 20:17:23
TRACK 07 AUDIO
TITLE “Woröm dunn ich mir dat eijentlich ahn”
PERFORMER “BAP”
FLAGS DCP
INDEX 01 26:15:40
TRACK 08 AUDIO
TITLE “Verjess Babylon”
PERFORMER “BAP”
FLAGS DCP
INDEX 01 30:54:12
TRACK 09 AUDIO
TITLE “Karl-Heinz”
PERFORMER “BAP”
FLAGS DCP
INDEX 01 36:52:17
TRACK 10 AUDIO
TITLE “All die Aureblecke”
PERFORMER “BAP”
FLAGS DCP
INDEX 01 39:12:31
TRACK 11 AUDIO
TITLE “Immerhin”
PERFORMER “BAP”
FLAGS DCP
INDEX 01 43:30:48
TRACK 12 AUDIO
TITLE “Enn Dreidüüvelsname”
PERFORMER “BAP”
FLAGS DCP
INDEX 01 47:45:14
TRACK 13 AUDIO
TITLE “Niemohls”
PERFORMER “BAP”
FLAGS DCP
INDEX 01 52:26:63
TRACK 14 AUDIO
TITLE “Waat ens jraad”
PERFORMER “BAP”
FLAGS DCP
INDEX 01 57:19:65


Leave a Reply

Your email address will not be published. Required fields are marked *

This site uses Akismet to reduce spam. Learn how your comment data is processed.