BAP – Dreimal zehn Jahre




Artist: BAP
Year: 2005
Genre: Rock
Notes: Discogs
Add. Notes:
Cover incl.: Yes
Encoder: FLAC
Bitrate: ~900 kBit/s (44.1 kHz/16 Bit/s)
Log & Cue incl.: Yes
Size: 979,05 MB
Password: “slam” (without ” “)


All Downloads/Hosters are compatible

Download 1
Turbobit.net
KatFile.com
Rapidgator.net
Download 2
Turbobit.net
KatFile.com
Rapidgator.net

Tracklist:

1-1. Dreimohl Zehn Johre - 3:48
1-2. Helfe Kann Dir Keiner - 4:05
1-3. Anna - 2:26
1-4. Jraaduss - 5:07
1-5. Ne Schöne Jrooss - 4:38
1-6. Verdamp Lang Her - 6:18
1-7. Frau Ich Freu Mich - 5:28
1-8. Wellenreiter - 2:45
1-9. Kristallnaach - 6:01
1-10. Do Kanns Zaubere - 4:54
1-11. Nemm Mich Mit - 4:34
1-12. Alexandra, Nit Nur Du - 5:25
1-13. Time Is Cash Time Is Money - 5:12
1-14. Ahl Männer, Aalglatt - 4:22
1-15. Fortsetzung Folgt - 4:31
1-16. Verdamp Lang Her (Vollkölsche Version) - 6:18
2-1. Alles Em Lot - 5:10
2-2. Denn Mer Sinn Widder Wer - 4:27
2-3. Paar Daach Fröher - 4:42
2-4. Widderlich - 4:15
2-05. Rita, Mer Zwei - 3:49
2-6. Amerika - 6:34
2-7. Nix Wie Bessher - 5:18
2-8. Lena - 5:07
2-9. Ahnunfürsich - 4:11
2-10. Dir Allein - 6:06
2-11. Aff Un Zo - 3:54
2-12. Hollywood Boulevard - 5:16
2-13. Rövver Noh Tanger - 5:07
2-14. Unger Krahnebäume - 3:08
2-15. Nähxte Stadt - 3:48
2-16. Einmal Nur In Unserm Leben - 1:57

EAC-Log, CUE-Sheed & NFO:

Click to open spoiler
Exact Audio Copy V0.99 prebeta 5 from 4. May 2009

EAC extraction logfile from 24. October 2011, 13:02

BAP / DREIMAL ZEHN JAHRE (CD1)

Used drive : PIONEER DVD RW DVR-109 Adapter: 0 ID: 0

Read mode : Secure
Utilize accurate stream : Yes
Defeat audio cache : Yes
Make use of C2 pointers : No

Read offset correction : 48
Overread into Lead-In and Lead-Out : No
Fill up missing offset samples with silence : Yes
Delete leading and trailing silent blocks : No
Null samples used in CRC calculations : Yes
Used interface : Installed external ASPI interface

Used output format : Internal WAV Routines
Sample format : 44.100 Hz; 16 Bit; Stereo

TOC of the extracted CD

Track | Start | Length | Start sector | End sector
———————————————————
1 | 0:00.00 | 3:48.03 | 0 | 17102
2 | 3:48.03 | 4:04.71 | 17103 | 35473
3 | 7:52.74 | 2:26.43 | 35474 | 46466
4 | 10:19.42 | 5:07.01 | 46467 | 69492
5 | 15:26.43 | 4:38.57 | 69493 | 90399
6 | 20:05.25 | 6:18.12 | 90400 | 118761
7 | 26:23.37 | 5:28.05 | 118762 | 143366
8 | 31:51.42 | 2:45.39 | 143367 | 155780
9 | 34:37.06 | 6:01.41 | 155781 | 182896
10 | 40:38.47 | 4:54.33 | 182897 | 204979
11 | 45:33.05 | 4:34.14 | 204980 | 225543
12 | 50:07.19 | 5:25.58 | 225544 | 249976
13 | 55:33.02 | 5:12.33 | 249977 | 273409
14 | 60:45.35 | 4:22.40 | 273410 | 293099
15 | 65:08.00 | 4:31.51 | 293100 | 313475
16 | 69:39.51 | 6:18.22 | 313476 | 341847

Range status and errors

Selected range

Filename G:\Audio\BAP\BAP – DREIMAL ZEHN JAHRE (CD1).wav

Peak level 99.8 %
Range quality 100.0 %
Test CRC 97AF91DD
Copy CRC 97AF91DD
Copy OK

No errors occurred

AccurateRip summary

Track 1 accurately ripped (confidence 63) [0977D4BF]
Track 2 accurately ripped (confidence 66) [550CB032]
Track 3 accurately ripped (confidence 67) [407CB7FD]
Track 4 accurately ripped (confidence 68) [E433514F]
Track 5 accurately ripped (confidence 67) [AE9CC366]
Track 6 accurately ripped (confidence 68) [080FE897]
Track 7 accurately ripped (confidence 68) [2749E008]
Track 8 accurately ripped (confidence 67) [4AF74D38]
Track 9 accurately ripped (confidence 66) [341C6C21]
Track 10 accurately ripped (confidence 68) [AF6BA884]
Track 11 accurately ripped (confidence 67) [CCE6962D]
Track 12 accurately ripped (confidence 67) [A83EB498]
Track 13 accurately ripped (confidence 68) [8A663225]
Track 14 accurately ripped (confidence 66) [2B0FA6E9]
Track 15 accurately ripped (confidence 66) [3FAF94AC]
Track 16 accurately ripped (confidence 63) [9A29D03B]

All tracks accurately ripped

End of status report

Exact Audio Copy V0.99 prebeta 5 from 4. May 2009

EAC extraction logfile from 8. October 2011, 17:03

BAP / DREIMAL ZEHN JAHRE (CD2)

Used drive : PIONEER DVD RW DVR-109 Adapter: 0 ID: 0

Read mode : Secure
Utilize accurate stream : Yes
Defeat audio cache : Yes
Make use of C2 pointers : No

Read offset correction : 48
Overread into Lead-In and Lead-Out : No
Fill up missing offset samples with silence : Yes
Delete leading and trailing silent blocks : No
Null samples used in CRC calculations : Yes
Used interface : Installed external ASPI interface

Used output format : Internal WAV Routines
Sample format : 44.100 Hz; 16 Bit; Stereo

TOC of the extracted CD

Track | Start | Length | Start sector | End sector
———————————————————
1 | 0:00.00 | 5:10.44 | 0 | 23293
2 | 5:10.44 | 4:27.43 | 23294 | 43361
3 | 9:38.12 | 4:42.70 | 43362 | 64581
4 | 14:21.07 | 4:15.30 | 64582 | 83736
5 | 18:36.37 | 3:49.16 | 83737 | 100927
6 | 22:25.53 | 6:34.47 | 100928 | 130524
7 | 29:00.25 | 5:18.52 | 130525 | 154426
8 | 34:19.02 | 5:07.67 | 154427 | 177518
9 | 39:26.69 | 4:11.00 | 177519 | 196343
10 | 43:37.69 | 6:06.26 | 196344 | 223819
11 | 49:44.20 | 3:54.24 | 223820 | 241393
12 | 53:38.44 | 5:16.36 | 241394 | 265129
13 | 58:55.05 | 5:07.64 | 265130 | 288218
14 | 64:02.69 | 3:07.72 | 288219 | 302315
15 | 67:10.66 | 3:48.00 | 302316 | 319415
16 | 70:58.66 | 1:57.39 | 319416 | 328229

Range status and errors

Selected range

Filename G:\Audio\BAP\BAP – DREIMAL ZEHN JAHRE (CD2).wav

Peak level 99.8 %
Range quality 100.0 %
Test CRC 9E8E5863
Copy CRC 9E8E5863
Copy OK

No errors occurred

AccurateRip summary

Track 1 accurately ripped (confidence 67) [CB35B573]
Track 2 accurately ripped (confidence 68) [C3A5C367]
Track 3 accurately ripped (confidence 68) [23AF4715]
Track 4 accurately ripped (confidence 68) [6D1271DD]
Track 5 accurately ripped (confidence 68) [C7D046F8]
Track 6 accurately ripped (confidence 67) [195B8FE4]
Track 7 accurately ripped (confidence 67) [59CEF2EC]
Track 8 accurately ripped (confidence 67) [74D82C4A]
Track 9 accurately ripped (confidence 66) [2BCE31A4]
Track 10 accurately ripped (confidence 67) [9A8DD2CE]
Track 11 accurately ripped (confidence 68) [45F8BA48]
Track 12 accurately ripped (confidence 68) [2A670AFE]
Track 13 accurately ripped (confidence 68) [FA189E38]
Track 14 accurately ripped (confidence 67) [5B5E90F0]
Track 15 accurately ripped (confidence 64) [EFFC0DB0]
Track 16 accurately ripped (confidence 63) [A17A7FC2]

All tracks accurately ripped

End of status report

REM GENRE Folk/Rock
REM DATE 2005
REM DISCID D311CD10
REM COMMENT “ExactAudioCopy v0.99pb5”
PERFORMER “BAP”
TITLE “DREIMAL ZEHN JAHRE (CD1)”
FILE “BAP – DREIMAL ZEHN JAHRE (CD1).flac” FLAC
TRACK 01 AUDIO
TITLE “Dreimohl zehn Johre”
PERFORMER “BAP”
FLAGS DCP
INDEX 01 00:00:00
TRACK 02 AUDIO
TITLE “Helfe kann dir keiner”
PERFORMER “BAP”
FLAGS DCP
INDEX 01 03:48:03
TRACK 03 AUDIO
TITLE “Anna”
PERFORMER “BAP”
FLAGS DCP
INDEX 01 07:52:74
TRACK 04 AUDIO
TITLE “Jraaduss”
PERFORMER “BAP”
FLAGS DCP
INDEX 01 10:19:42
TRACK 05 AUDIO
TITLE “Ne schöne Jrooß”
PERFORMER “BAP”
FLAGS DCP
INDEX 01 15:26:43
TRACK 06 AUDIO
TITLE “Verdamp lang her (feat. Thomas D)”
PERFORMER “BAP”
FLAGS DCP
INDEX 01 20:05:25
TRACK 07 AUDIO
TITLE “Frau, ich freu mich”
PERFORMER “BAP”
FLAGS DCP
INDEX 01 26:23:37
TRACK 08 AUDIO
TITLE “Wellenreiter”
PERFORMER “BAP”
FLAGS DCP
INDEX 01 31:51:42
TRACK 09 AUDIO
TITLE “Kristallnaach (feat. Laith Al-Deen)”
PERFORMER “BAP”
FLAGS DCP
INDEX 01 34:37:06
TRACK 10 AUDIO
TITLE “Du kanns zaubere”
PERFORMER “BAP”
FLAGS DCP
INDEX 01 40:38:47
TRACK 11 AUDIO
TITLE “Nemm mich met”
PERFORMER “BAP”
FLAGS DCP
INDEX 01 45:33:05
TRACK 12 AUDIO
TITLE “Alexandra, nit nur do”
PERFORMER “BAP”
FLAGS DCP
INDEX 01 50:07:19
TRACK 13 AUDIO
TITLE “Time is Cash, Time is Money (feat. Culcha Candela)”
PERFORMER “BAP”
FLAGS DCP
INDEX 01 55:33:02
TRACK 14 AUDIO
TITLE “Ahl Männer, aalglatt”
PERFORMER “BAP”
FLAGS DCP
INDEX 01 60:45:35
TRACK 15 AUDIO
TITLE “Fortsetzung folgt (feat. Nino Skrotzki/Virginia Jetzt!)”
PERFORMER “BAP”
FLAGS DCP
INDEX 01 65:08:00
TRACK 16 AUDIO
TITLE “Verdamp lang her (Vollkölsche Version)”
PERFORMER “BAP”
FLAGS DCP
INDEX 01 69:39:51

REM GENRE Folk/Rock
REM DATE 2005
REM DISCID D6111810
REM COMMENT “ExactAudioCopy v0.99pb5”
PERFORMER “BAP”
TITLE “DREIMAL ZEHN JAHRE (CD2)”
FILE “BAP – DREIMAL ZEHN JAHRE (CD2).flac” FLAC
TRACK 01 AUDIO
TITLE “Alles em Lot”
PERFORMER “BAP”
FLAGS DCP
INDEX 01 00:00:00
TRACK 02 AUDIO
TITLE “Denn mer sinn widder wer”
PERFORMER “BAP”
FLAGS DCP
INDEX 01 05:10:44
TRACK 03 AUDIO
TITLE “Paar Daach fröher (feat. Meret Becker)”
PERFORMER “BAP”
FLAGS DCP
INDEX 01 09:38:12
TRACK 04 AUDIO
TITLE “Widderlich (feat. Henning Wehland)”
PERFORMER “BAP”
FLAGS DCP
INDEX 01 14:21:07
TRACK 05 AUDIO
TITLE “Rita, mir zwei (feat. Hubert von Goisern)”
PERFORMER “BAP”
FLAGS DCP
INDEX 01 18:36:37
TRACK 06 AUDIO
TITLE “Amerika”
PERFORMER “BAP”
FLAGS DCP
INDEX 01 22:25:53
TRACK 07 AUDIO
TITLE “Nix wie bessher”
PERFORMER “BAP”
FLAGS DCP
INDEX 01 29:00:25
TRACK 08 AUDIO
TITLE “Lena (feat. Marta Jandová/Die Happy)”
PERFORMER “BAP”
FLAGS DCP
INDEX 01 34:19:02
TRACK 09 AUDIO
TITLE “Ahnunfürsich”
PERFORMER “BAP”
FLAGS DCP
INDEX 01 39:26:69
TRACK 10 AUDIO
TITLE “Dir allein (feat. Xavier Naidoo)”
PERFORMER “BAP”
FLAGS DCP
INDEX 01 43:37:69
TRACK 11 AUDIO
TITLE “Aff un zo”
PERFORMER “BAP”
FLAGS DCP
INDEX 01 49:44:20
TRACK 12 AUDIO
TITLE “Hollywood Boulevard (feat. Ray Davies)”
PERFORMER “BAP”
FLAGS DCP
INDEX 01 53:38:44
TRACK 13 AUDIO
TITLE “Rövver noh Tanger”
PERFORMER “BAP”
FLAGS DCP
INDEX 01 58:55:05
TRACK 14 AUDIO
TITLE “Unger Krahnebäume”
PERFORMER “BAP”
FLAGS DCP
INDEX 01 64:02:69
TRACK 15 AUDIO
TITLE “Nähxte Stadt”
PERFORMER “BAP”
FLAGS DCP
INDEX 01 67:10:66
TRACK 16 AUDIO
TITLE “Einmal nur in unserm Leben (Herbert Grönemeyers Geburtstagsständchen)”
PERFORMER “BAP”
FLAGS DCP
INDEX 01 70:58:66


Leave a Reply

Your email address will not be published. Required fields are marked *

Enter the text from the image below
 

This site uses Akismet to reduce spam. Learn how your comment data is processed.