BAP – Aff Un Zo




Artist: BAP
Year: 2001
Genre: Rock
Notes: Discogs
Add. Notes:
Cover incl.: Yes
Encoder: FLAC
Bitrate: ~1000 kBit/s (44.1 kHz/16 Bit/s)
Log & Cue incl.: Yes
Size: 513,35 MB
Password: “slam” (without ” “)


All Downloads/Hosters are compatible

Download 1
Turbobit.net
KatFile.com
Rapidgator.net
Download 2
Turbobit.net
KatFile.com
Rapidgator.net

Tracklist:

1 - Wat 'e Johr! - 5:05
2 - Aff Un Zo - 5:19
3 - Eddie's Radio Show - 3:55
4 - Shoeshine - 6:04
5 - Mau Mau - 6:17
6 - Die Moritat Vun Jan Un Griet - 3:41
7 - Kilometerweit Entfernt - 5:19
8 - Souvenirs - 4:54
9 - Istanbul - 6:28
10 - Chippendale Desch - 8:01
11 - Noh Zahle Mohle - 3:58
12 - Suwiesu - 3:52
13 - Irjenden Rock'n'Roll-Band - 5:08
14 - Dir Allein - 7:19

EAC-Log, CUE-Sheed & NFO:

Click to open spoiler
Exact Audio Copy V0.99 prebeta 5 from 4. May 2009

EAC extraction logfile from 6. December 2011, 15:57

BAP / AFF UN ZO

Used drive : PIONEER DVD RW DVR-109 Adapter: 0 ID: 0

Read mode : Secure
Utilize accurate stream : Yes
Defeat audio cache : Yes
Make use of C2 pointers : No

Read offset correction : 48
Overread into Lead-In and Lead-Out : No
Fill up missing offset samples with silence : Yes
Delete leading and trailing silent blocks : No
Null samples used in CRC calculations : Yes
Used interface : Installed external ASPI interface

Used output format : Internal WAV Routines
Sample format : 44.100 Hz; 16 Bit; Stereo

TOC of the extracted CD

Track | Start | Length | Start sector | End sector
———————————————————
1 | 0:00.00 | 5:04.46 | 0 | 22845
2 | 5:04.46 | 5:18.69 | 22846 | 46764
3 | 10:23.40 | 3:54.39 | 46765 | 64353
4 | 14:18.04 | 6:03.54 | 64354 | 91632
5 | 20:21.58 | 6:17.19 | 91633 | 119926
6 | 26:39.02 | 3:41.36 | 119927 | 136537
7 | 30:20.38 | 5:19.02 | 136538 | 160464
8 | 35:39.40 | 4:53.51 | 160465 | 182490
9 | 40:33.16 | 6:28.33 | 182491 | 211623
10 | 47:01.49 | 8:00.45 | 211624 | 247668
11 | 55:02.19 | 3:58.21 | 247669 | 265539
12 | 59:00.40 | 3:51.55 | 265540 | 282919
13 | 62:52.20 | 5:07.64 | 282920 | 306008
14 | 68:00.09 | 7:19.09 | 306009 | 338942

Range status and errors

Selected range

Filename G:\Audio\BAP\BAP – AFF UN ZO.wav

Peak level 98.8 %
Range quality 100.0 %
Test CRC EE77BAD1
Copy CRC EE77BAD1
Copy OK

No errors occurred

AccurateRip summary

Track 1 accurately ripped (confidence 77) [37D0A637]
Track 2 accurately ripped (confidence 77) [66D7F496]
Track 3 accurately ripped (confidence 77) [648AEAEB]
Track 4 accurately ripped (confidence 75) [1D52D5D9]
Track 5 accurately ripped (confidence 77) [16E83D09]
Track 6 accurately ripped (confidence 77) [1088C7B8]
Track 7 accurately ripped (confidence 73) [4005C302]
Track 8 accurately ripped (confidence 74) [4B6084CE]
Track 9 accurately ripped (confidence 73) [ADAFAB50]
Track 10 accurately ripped (confidence 71) [1350ABF5]
Track 11 accurately ripped (confidence 74) [EF5A8EE1]
Track 12 accurately ripped (confidence 75) [F4801E4B]
Track 13 accurately ripped (confidence 75) [ECAC91FA]
Track 14 accurately ripped (confidence 73) [ACD2210C]

All tracks accurately ripped

End of status report

REM GENRE Rock
REM DATE 2001
REM DISCID A311A70E
REM COMMENT “ExactAudioCopy v0.99pb5”
PERFORMER “BAP”
TITLE “AFF UN ZO”
FILE “BAP – AFF UN ZO.flac” FLAC
TRACK 01 AUDIO
TITLE “Wat ‘E Johr!”
PERFORMER “BAP”
INDEX 01 00:00:00
TRACK 02 AUDIO
TITLE “Aff Un Zo”
PERFORMER “BAP”
INDEX 00 05:04:33
INDEX 01 05:04:46
TRACK 03 AUDIO
TITLE “Eddie’s Radio Show”
PERFORMER “BAP”
INDEX 00 10:23:39
INDEX 01 10:23:40
TRACK 04 AUDIO
TITLE “Shoeshine”
PERFORMER “BAP”
INDEX 00 14:17:15
INDEX 01 14:18:04
TRACK 05 AUDIO
TITLE “Mau Mau”
PERFORMER “BAP”
INDEX 00 20:21:57
INDEX 01 20:21:58
TRACK 06 AUDIO
TITLE “Die Moritat Vun Jan Un Griet”
PERFORMER “BAP”
INDEX 00 26:38:51
INDEX 01 26:39:02
TRACK 07 AUDIO
TITLE “Kilometerweit Entfernt”
PERFORMER “BAP”
INDEX 00 30:19:70
INDEX 01 30:20:38
TRACK 08 AUDIO
TITLE “Souvenirs”
PERFORMER “BAP”
INDEX 00 35:39:39
INDEX 01 35:39:40
TRACK 09 AUDIO
TITLE “Istanbul”
PERFORMER “BAP”
INDEX 00 40:32:07
INDEX 01 40:33:16
TRACK 10 AUDIO
TITLE “Chippendale Desch”
PERFORMER “BAP”
INDEX 00 47:01:48
INDEX 01 47:01:49
TRACK 11 AUDIO
TITLE “Noh Zahle Mohle”
PERFORMER “BAP”
INDEX 00 55:02:18
INDEX 01 55:02:19
TRACK 12 AUDIO
TITLE “Suwiesu”
PERFORMER “BAP”
INDEX 00 59:00:39
INDEX 01 59:00:40
TRACK 13 AUDIO
TITLE “Irjenden Rock ‘N’ Roll-Band”
PERFORMER “BAP”
INDEX 00 62:51:50
INDEX 01 62:52:20
TRACK 14 AUDIO
TITLE “Dir Allein”
PERFORMER “BAP”
INDEX 00 67:58:36
INDEX 01 68:00:09


Leave a Reply

Your email address will not be published. Required fields are marked *

This site uses Akismet to reduce spam. Learn how your comment data is processed.