Bad Religion – Stranger Than Fiction




No Cover available


Artist: Bad Religion
Year: 1994
Genre: Punk
Notes: Discogs
Add. Notes:
Watch Songs on: YouTube
Cover incl.: Yes
Encoder: FLAC
Bitrate: ~1000 kBit/s (44.1 kHz/16 Bit/s)
Log & Cue incl.: Yes/Yes
Size: 297,9 MB
Password: “slam” (without ” “)


All Downloads/Hosters are compatible

Download 1
KatFile.com
Turbobit.net
Rapidgator.net
FileFactory.com
Download 2
KatFile.com
Turbobit.net
Rapidgator.net
FileFactory.com

Tracklist:

1 Incomplete 2:28
2 Leave Mine To Me 2:07
3 Stranger Than Fiction 2:20
4 Tiny Voices 2:36
5 The Handshake 2:50
6 Better Off Dead 2:39
7 Infected 4:08
8 Television 2:03
9 Individual 1:58
10 Hooray For Me... 2:50
11 Slumber 2:39
12 Marked 1:48
13 Inner Logic 2:58
14 What It Is 2:08
15 21st Century (Digital Boy) 2:47
16 News From The Front 2:22
17 Markovian Process 1:29

EAC-Log, CUE-Sheed & NFO:

Click to open spoiler
Exact Audio Copy V0.99 prebeta 4 from 23. January 2008

EAC extraction logfile from 7. August 2008, 15:01

Bad Religion / Stranger Than Fiction

Used drive : HL-DT-STDVDRAM GH20NS10 Adapter: 3 ID: 0

Read mode : Secure
Utilize accurate stream : Yes
Defeat audio cache : Yes
Make use of C2 pointers : No

Read offset correction : 667
Overread into Lead-In and Lead-Out : No
Fill up missing offset samples with silence : Yes
Delete leading and trailing silent blocks : No
Null samples used in CRC calculations : Yes
Used interface : Native Win32 interface for Win NT & 2000
Gap handling : Appended to previous track

Used output format : User Defined Encoder
Selected bitrate : 768 kBit/s
Quality : High
Add ID3 tag : No
Command line compressor : C:\Program Files\FLAC\flac.exe
Additional command line options : -V -8 -T “artist=%a” -T “title=%t” -T “album=%g” -T “date=%y” -T “tracknumber=%n” %s

TOC of the extracted CD

Track | Start | Length | Start sector | End sector
———————————————————
1 | 0:00.00 | 2:29.30 | 0 | 11204
2 | 2:29.30 | 2:06.72 | 11205 | 20726
3 | 4:36.27 | 2:20.23 | 20727 | 31249
4 | 6:56.50 | 2:37.00 | 31250 | 43024
5 | 9:33.50 | 2:49.67 | 43025 | 55766
6 | 12:23.42 | 2:38.68 | 55767 | 67684
7 | 15:02.35 | 4:07.45 | 67685 | 86254
8 | 19:10.05 | 2:03.50 | 86255 | 95529
9 | 21:13.55 | 1:58.05 | 95530 | 104384
10 | 23:11.60 | 2:49.10 | 104385 | 117069
11 | 26:00.70 | 2:41.17 | 117070 | 129161
12 | 28:42.12 | 1:48.13 | 129162 | 137274
13 | 30:30.25 | 2:57.62 | 137275 | 150611
14 | 33:28.12 | 2:08.25 | 150612 | 160236
15 | 35:36.37 | 2:47.73 | 160237 | 172834
16 | 38:24.35 | 2:22.27 | 172835 | 183511
17 | 40:46.62 | 1:29.38 | 183512 | 190224

Track 1

Filename C:\Hi there RIAA, What’s up IFPI\Bad Religion – Stranger Than Fiction\01 – Incomplete.wav

Pre-gap length 0:00:02.00

Peak level 97.7 %
Track quality 99.9 %
Test CRC F6A5C876
Copy CRC F6A5C876
Accurately ripped (confidence 38) [5F4F15CA]
Copy OK

Track 2

Filename C:\Hi there RIAA, What’s up IFPI\Bad Religion – Stranger Than Fiction\02 – Leave Mine To Me.wav

Pre-gap length 0:00:00.50

Peak level 97.7 %
Track quality 100.0 %
Test CRC 1BF317F7
Copy CRC 1BF317F7
Accurately ripped (confidence 39) [16FA4AD4]
Copy OK

Track 3

Filename C:\Hi there RIAA, What’s up IFPI\Bad Religion – Stranger Than Fiction\03 – Stranger Than Fiction.wav

Peak level 97.7 %
Track quality 100.0 %
Test CRC 0137C0AA
Copy CRC 0137C0AA
Accurately ripped (confidence 39) [A0F8E66D]
Copy OK

Track 4

Filename C:\Hi there RIAA, What’s up IFPI\Bad Religion – Stranger Than Fiction\04 – Tiny Voices.wav

Peak level 97.7 %
Track quality 100.0 %
Test CRC 09BD8AF1
Copy CRC 09BD8AF1
Accurately ripped (confidence 39) [6909F166]
Copy OK

Track 5

Filename C:\Hi there RIAA, What’s up IFPI\Bad Religion – Stranger Than Fiction\05 – The Handshake.wav

Peak level 97.7 %
Track quality 100.0 %
Test CRC FA2FF378
Copy CRC FA2FF378
Accurately ripped (confidence 39) [505C8C79]
Copy OK

Track 6

Filename C:\Hi there RIAA, What’s up IFPI\Bad Religion – Stranger Than Fiction\06 – Better Off Dead.wav

Peak level 97.7 %
Track quality 100.0 %
Test CRC 4B9382C9
Copy CRC 4B9382C9
Accurately ripped (confidence 37) [A04780EB]
Copy OK

Track 7

Filename C:\Hi there RIAA, What’s up IFPI\Bad Religion – Stranger Than Fiction\07 – Infected.wav

Peak level 97.7 %
Track quality 100.0 %
Test CRC A645919E
Copy CRC A645919E
Accurately ripped (confidence 39) [6018EB82]
Copy OK

Track 8

Filename C:\Hi there RIAA, What’s up IFPI\Bad Religion – Stranger Than Fiction\08 – Television.wav

Peak level 97.7 %
Track quality 100.0 %
Test CRC 434827DA
Copy CRC 434827DA
Accurately ripped (confidence 39) [9A230728]
Copy OK

Track 9

Filename C:\Hi there RIAA, What’s up IFPI\Bad Religion – Stranger Than Fiction\09 – Individual.wav

Peak level 97.7 %
Track quality 100.0 %
Test CRC 9CC03A7C
Copy CRC 9CC03A7C
Accurately ripped (confidence 39) [2FCFF687]
Copy OK

Track 10

Filename C:\Hi there RIAA, What’s up IFPI\Bad Religion – Stranger Than Fiction\10 – Hooray For Me.wav

Peak level 97.7 %
Track quality 100.0 %
Test CRC 9D821F0D
Copy CRC 9D821F0D
Accurately ripped (confidence 39) [AB58A5F0]
Copy OK

Track 11

Filename C:\Hi there RIAA, What’s up IFPI\Bad Religion – Stranger Than Fiction\11 – Slumber.wav

Peak level 97.7 %
Track quality 100.0 %
Test CRC 9168BED4
Copy CRC 9168BED4
Accurately ripped (confidence 38) [59E379AD]
Copy OK

Track 12

Filename C:\Hi there RIAA, What’s up IFPI\Bad Religion – Stranger Than Fiction\12 – Marked.wav

Peak level 97.7 %
Track quality 100.0 %
Test CRC 736E0B53
Copy CRC 736E0B53
Accurately ripped (confidence 39) [74C1ABFC]
Copy OK

Track 13

Filename C:\Hi there RIAA, What’s up IFPI\Bad Religion – Stranger Than Fiction\13 – Inner Logic.wav

Peak level 97.7 %
Track quality 100.0 %
Test CRC A729F883
Copy CRC A729F883
Accurately ripped (confidence 39) [5095F247]
Copy OK

Track 14

Filename C:\Hi there RIAA, What’s up IFPI\Bad Religion – Stranger Than Fiction\14 – What It Is.wav

Peak level 97.7 %
Track quality 100.0 %
Test CRC D084DC5D
Copy CRC D084DC5D
Accurately ripped (confidence 39) [8E9781AC]
Copy OK

Track 15

Filename C:\Hi there RIAA, What’s up IFPI\Bad Religion – Stranger Than Fiction\15 – 21st Century (Digital Boy).wav

Peak level 97.7 %
Track quality 100.0 %
Test CRC 8CD2540E
Copy CRC 8CD2540E
Accurately ripped (confidence 38) [DA74C69F]
Copy OK

Track 16

Filename C:\Hi there RIAA, What’s up IFPI\Bad Religion – Stranger Than Fiction\16 – News From The Front.wav

Pre-gap length 0:00:00.46

Peak level 97.7 %
Track quality 100.0 %
Test CRC 012A5625
Copy CRC 012A5625
Accurately ripped (confidence 39) [F461065E]
Copy OK

Track 17

Filename C:\Hi there RIAA, What’s up IFPI\Bad Religion – Stranger Than Fiction\17 – Markovian Process.wav

Pre-gap length 0:00:00.53

Peak level 97.7 %
Track quality 100.0 %
Test CRC 84C7531E
Copy CRC 84C7531E
Accurately ripped (confidence 37) [4E5E27A6]
Copy OK

All tracks accurately ripped

No errors occurred

End of status report

REM DATE 1994
REM DISCID D509E811
REM COMMENT “ExactAudioCopy v0.99pb4”
PERFORMER “Bad Religion”
TITLE “Stranger Than Fiction (European Release)”
FILE “01 – Incomplete.flac” WAVE
TRACK 01 AUDIO
TITLE “Incomplete”
PERFORMER “Bad Religion”
INDEX 01 00:00:00
TRACK 02 AUDIO
TITLE “Leave Mine To Me”
PERFORMER “Bad Religion”
INDEX 00 02:28:67
FILE “02 – Leave Mine To Me.flac” WAVE
INDEX 01 00:00:00
FILE “03 – Stranger Than Fiction.flac” WAVE
TRACK 03 AUDIO
TITLE “Stranger Than Fiction”
PERFORMER “Bad Religion”
INDEX 01 00:00:00
FILE “04 – Tiny Voices.flac” WAVE
TRACK 04 AUDIO
TITLE “Tiny Voices”
PERFORMER “Bad Religion”
INDEX 01 00:00:00
FILE “05 – The Handshake.flac” WAVE
TRACK 05 AUDIO
TITLE “The Handshake”
PERFORMER “Bad Religion”
INDEX 01 00:00:00
FILE “06 – Better Off Dead.flac” WAVE
TRACK 06 AUDIO
TITLE “Better Off Dead”
PERFORMER “Bad Religion”
INDEX 01 00:00:00
FILE “07 – Infected.flac” WAVE
TRACK 07 AUDIO
TITLE “Infected”
PERFORMER “Bad Religion”
INDEX 01 00:00:00
FILE “08 – Television.flac” WAVE
TRACK 08 AUDIO
TITLE “Television”
PERFORMER “Bad Religion”
INDEX 01 00:00:00
FILE “09 – Individual.flac” WAVE
TRACK 09 AUDIO
TITLE “Individual”
PERFORMER “Bad Religion”
INDEX 01 00:00:00
FILE “10 – Hooray For Me….flac” WAVE
TRACK 10 AUDIO
TITLE “Hooray For Me…”
PERFORMER “Bad Religion”
INDEX 01 00:00:00
FILE “11 – Slumber.flac” WAVE
TRACK 11 AUDIO
TITLE “Slumber”
PERFORMER “Bad Religion”
INDEX 01 00:00:00
FILE “12 – Marked.flac” WAVE
TRACK 12 AUDIO
TITLE “Marked”
PERFORMER “Bad Religion”
INDEX 01 00:00:00
FILE “13 – Inner Logic.flac” WAVE
TRACK 13 AUDIO
TITLE “Inner Logic”
PERFORMER “Bad Religion”
INDEX 01 00:00:00
FILE “14 – What It Is.flac” WAVE
TRACK 14 AUDIO
TITLE “What It Is”
PERFORMER “Bad Religion”
INDEX 01 00:00:00
FILE “15 – 21st Century (Digital Boy).flac” WAVE
TRACK 15 AUDIO
TITLE “21st Century (Digital Boy)”
PERFORMER “Bad Religion”
INDEX 01 00:00:00
TRACK 16 AUDIO
TITLE “News From The Front”
PERFORMER “Bad Religion”
INDEX 00 02:47:38
FILE “16 – News From The Front.flac” WAVE
INDEX 01 00:00:00
TRACK 17 AUDIO
TITLE “Markovian Process”
PERFORMER “Bad Religion”
INDEX 00 02:21:62
FILE “17 – Markovian Process.flac” WAVE
INDEX 01 00:00:00


Leave a Reply

Your email address will not be published. Required fields are marked *

Enter the text from the image below
 

This site uses Akismet to reduce spam. Learn how your comment data is processed.